VERSION	0.00.00	1.03.00
FES_MODE	0
BPM_DEF	164.000	164.000	164.000	164.000
MET_DEF	4	4
RESOLUTION	384
CLK_DEF	384
COMPATIBLE_CODE	MA2

BPM	0	0	164.000
MET	0	0	4	4

TAP	1	0	2
TAP	1	24	3
TAP	1	48	2
TAP	1	96	1
TAP	1	96	4
TAP	1	144	5
TAP	1	168	4
TAP	1	216	4
TAP	1	240	6
BST	1	288	3
SCL	1	288	3	96	672	4
BRK	1	288	7
TAP	3	96	1
TAP	3	192	0
TAP	3	288	7
HLD	4	0	6	576
TAP	4	96	4
TAP	4	192	4
TAP	4	288	4
TAP	5	0	4
TAP	5	96	4
HLD	5	192	4	192
TAP	5	288	5
HLD	6	0	3	576
TAP	6	96	2
TAP	6	192	2
TAP	6	288	2
TAP	7	0	2
TAP	7	96	2
HLD	7	192	1	192
TAP	7	288	0
STR	8	0	7
SCL	8	0	7	96	48	4
TAP	8	96	3
STR	8	192	0
SCR	8	192	0	96	48	3
TAP	8	288	4
STR	9	0	6
SI_	9	0	6	96	48	1
STR	9	96	2
SI_	9	96	2	96	48	5
STR	9	192	4
SF_	9	192	4	96	48	0
BRK	10	0	2
BRK	10	0	6
TAP	10	48	1
TAP	10	96	5
HLD	10	120	4	48
TAP	10	192	3
TAP	10	192	5
TAP	10	240	6
TAP	10	288	2
HLD	10	312	3	48
TAP	11	0	2
TAP	11	0	4
TAP	11	48	1
TAP	11	96	5
HLD	11	120	4	48
TAP	11	192	3
TAP	11	192	5
TAP	11	240	6
TAP	11	288	2
TAP	11	288	4
TAP	11	336	1
TAP	12	0	0
TAP	12	0	7
TAP	12	48	6
TAP	12	96	2
HLD	12	120	3	48
TAP	12	192	2
TAP	12	192	4
TAP	12	240	1
TAP	12	288	5
HLD	12	312	4	48
TAP	13	0	3
TAP	13	0	5
TAP	13	48	6
TAP	13	96	2
HLD	13	120	3	48
TAP	13	192	2
TAP	13	192	4
TAP	13	240	1
TAP	13	288	3
TAP	13	288	5
TAP	13	336	6
TAP	14	0	0
TAP	14	0	7
TAP	14	48	1
TAP	14	96	5
HLD	14	120	4	48
TAP	14	168	6
TAP	14	192	4
TAP	14	240	3
TAP	14	240	5
TAP	14	288	2
HLD	14	312	3	48
TAP	14	360	1
TAP	15	0	3
TAP	15	48	2
TAP	15	48	4
TAP	15	96	5
HLD	15	120	4	48
TAP	15	168	6
TAP	15	192	4
TAP	15	240	3
TAP	15	240	5
TAP	15	288	2
TAP	15	288	6
TAP	15	336	1
TAP	15	336	5
TAP	16	0	2
TAP	16	0	4
TAP	16	48	6
TAP	16	96	2
HLD	16	120	3	48
TAP	16	168	1
TAP	16	192	3
TAP	16	240	2
TAP	16	240	4
TAP	16	288	5
HLD	16	312	4	48
TAP	16	360	6
TAP	17	0	4
TAP	17	24	5
TAP	17	48	4
TAP	17	72	5
TAP	17	96	2
TAP	17	120	3
TAP	17	144	2
TAP	17	168	3
XTP	17	192	0
XTP	17	216	0
XTP	17	240	7
XTP	17	264	7
XTP	17	288	1
XTP	17	312	1
XTP	17	336	6
XTP	17	360	6
BST	18	0	2
SLR	18	0	2	96	96	0
TAP	18	96	4
TAP	18	144	5
STR	18	192	6
SI_	18	192	6	96	48	2
TAP	18	288	7
STR	18	336	0
SCR	18	336	0	96	48	3
TAP	19	48	4
TAP	19	96	5
TAP	19	144	4
STR	19	192	3
SI_	19	192	3	96	48	7
STR	19	192	6
SI_	19	192	6	96	48	4
TAP	19	288	3
TAP	19	288	6
HLD	20	0	0	96
STR	20	96	2
SXR	20	96	2	96	144	4
TAP	20	144	4
TAP	20	192	6
STR	20	336	7
SCL	20	336	7	96	48	4
TAP	21	48	3
TAP	21	96	2
TAP	21	144	3
TAP	21	192	1
STR	21	192	4
SI_	21	192	4	96	48	0
STR	21	288	2
SCR	21	288	2	96	48	5
TAP	21	288	4
TAP	22	0	2
HLD	22	0	6	96
TAP	22	96	7
TAP	22	144	0
STR	22	144	5
SLL	22	144	5	96	96	7
TAP	22	240	3
HLD	22	288	1	96
TAP	23	0	0
TAP	23	48	1
TAP	23	96	2
TAP	23	96	7
TAP	23	144	6
TAP	23	192	1
TAP	23	192	5
TAP	23	240	2
STR	23	288	3
SI_	23	288	3	96	48	0
TAP	23	288	6
TAP	23	336	3
TAP	24	0	4
TAP	24	96	1
STR	24	96	4
SI_	24	96	4	96	48	7
TAP	24	144	4
TAP	24	192	3
TAP	24	288	1
TAP	24	288	6
TAP	24	336	3
TAP	24	336	4
TAP	25	48	0
TAP	25	48	7
STR	25	96	0
SXL	25	96	0	96	120	3
STR	25	96	7
SXR	25	96	7	96	120	4
TAP	25	144	1
TAP	25	144	6
XTP	25	192	0
XTP	25	192	7
TTP	25	288	0	C	1	M1
BRK	26	0	1
BRK	26	0	6
TAP	26	96	3
TAP	26	96	4
TAP	26	144	2
STR	26	192	1
SUR	26	192	1	96	48	5
TAP	26	192	3
TAP	26	288	0
HLD	26	336	7	96
STR	27	48	5
SXL	27	48	5	96	144	3
TAP	27	96	3
TAP	27	144	1
STR	27	288	1
SI_	27	288	1	96	48	4
TAP	28	0	0
TAP	28	0	1
TAP	28	96	6
TAP	28	96	7
TAP	28	144	5
TAP	28	192	4
STR	28	192	6
SUL	28	192	6	96	48	2
TAP	28	288	7
HLD	28	336	0	96
TAP	29	48	7
STR	29	96	0
SI_	29	96	0	96	48	4
TAP	29	144	1
TAP	29	144	7
BRK	29	192	0
TAP	29	288	2
TAP	29	288	6
XST	30	0	0
SCR	30	0	0	96	48	3
XTP	30	0	4
TAP	30	96	0
STR	30	144	5
SCR	30	144	5	96	48	0
TAP	30	240	5
STR	30	288	2
SCR	30	288	2	96	48	5
TAP	31	0	2
TAP	31	48	7
TAP	31	96	7
TAP	31	144	0
TAP	31	144	6
TAP	31	192	1
HLD	31	192	5	72
HLD	31	264	4	72
TAP	31	336	3
BRK	32	0	1
BRK	32	0	5
STR	32	144	2
SI_	32	144	2	96	48	7
STR	32	144	6
SI_	32	144	6	96	48	3
TAP	32	240	2
TAP	32	240	6
TAP	32	336	1
TAP	32	336	5
TAP	33	48	3
TAP	33	48	4
TAP	33	96	3
TAP	33	96	4
TAP	33	120	2
TAP	33	144	1
TAP	33	168	0
TAP	33	192	4
TAP	33	216	5
TAP	33	240	6
TAP	33	264	7
TAP	33	288	4
TAP	33	312	3
TAP	33	336	2
TAP	33	360	1
TTP	34	0	1	E	0	M1
XHO	34	0	5	336
TTP	34	16	0	B	0	M1
TTP	34	32	7	B	0	M1
TTP	34	48	7	E	0	M1
TTP	34	144	5	E	0	M1
TTP	34	160	4	B	0	M1
TTP	34	176	3	B	0	M1
TTP	34	192	3	E	0	M1
TTP	34	288	1	E	0	M1
TTP	34	304	1	B	0	M1
TTP	34	320	2	B	0	M1
TTP	34	336	3	E	0	M1
TAP	35	0	5
STR	35	48	4
SI_	35	48	4	96	48	1
TAP	35	48	6
STR	35	144	4
SI_	35	144	4	96	48	7
TAP	35	240	0
TAP	35	336	2
XHO	36	0	2	336
TTP	36	0	7	E	0	M1
TTP	36	16	7	B	0	M1
TTP	36	32	0	B	0	M1
TTP	36	48	1	E	0	M1
TTP	36	144	3	E	0	M1
TTP	36	160	3	B	0	M1
TTP	36	176	4	B	0	M1
TTP	36	192	5	E	0	M1
TTP	36	288	7	E	0	M1
TTP	36	304	6	B	0	M1
TTP	36	320	5	B	0	M1
TTP	36	336	5	E	0	M1
STR	37	0	2
SCR	37	0	2	96	48	5
TAP	37	96	2
TAP	37	192	6
TAP	37	216	7
TAP	37	240	6
TAP	37	264	7
TAP	37	288	6
TAP	37	336	1
TAP	37	360	0
STR	38	0	1
SI_	38	0	1	96	48	5
TAP	38	96	7
TAP	38	144	7
TAP	38	192	4
TAP	38	192	6
TAP	38	240	5
TAP	38	288	1
TAP	38	288	3
TAP	38	336	2
TAP	39	0	4
STR	39	0	6
SI_	39	0	6	96	48	2
TAP	39	96	0
TAP	39	144	0
TAP	39	192	1
TAP	39	192	3
TAP	39	240	2
TAP	39	288	4
TAP	39	288	6
TAP	39	336	5
HLD	40	0	3	72
TAP	40	0	4
HLD	40	72	2	72
TAP	40	144	1
TAP	40	192	3
HLD	40	192	4	72
HLD	40	264	5	72
TAP	40	336	6
XTP	41	0	0
XTP	41	0	7
XTP	41	72	3
XTP	41	72	4
BRK	41	144	1
BRK	41	144	6
TAP	41	240	3
TAP	41	256	4
TAP	41	272	3
STR	41	288	4
SCR	41	288	4	96	336	3
TAP	41	312	3
TAP	41	336	4
TAP	41	360	3
BRK	43	0	7
TAP	43	96	1
TAP	43	96	3
TAP	43	144	6
TAP	43	192	2
TAP	43	192	4
TAP	43	240	7
TAP	43	288	3
TAP	43	288	5
TAP	43	336	0
TAP	44	0	2
TAP	44	24	3
TAP	44	48	2
TAP	44	96	4
TAP	44	96	6
TAP	44	144	1
TAP	44	192	3
TAP	44	192	5
TAP	44	240	0
TAP	44	288	2
TAP	44	288	4
TAP	44	336	7
STR	45	0	5
SCR	45	0	5	96	48	0
TAP	45	48	4
TAP	45	96	3
STR	45	144	2
SCR	45	144	2	96	48	5
TAP	45	192	1
TAP	45	240	0
STR	45	288	7
SCR	45	288	7	96	48	2
TAP	45	336	6
TAP	46	0	5
TAP	46	48	4
TAP	46	96	3
STR	46	144	1
SI_	46	144	1	96	48	5
TAP	46	144	5
TAP	46	240	6
TAP	46	288	6
TAP	46	336	6
TAP	47	0	1
TAP	47	0	7
STR	47	48	0
SCR	47	48	0	96	48	3
TAP	47	96	7
TAP	47	144	0
TAP	47	144	6
TAP	47	192	5
TAP	47	240	4
TAP	47	288	2
TAP	47	288	3
TAP	48	0	0
TAP	48	0	6
STR	48	48	7
SCL	48	48	7	96	48	4
TAP	48	96	0
TAP	48	144	1
TAP	48	144	7
TAP	48	192	2
TAP	48	240	3
STR	48	288	1
SI_	48	288	1	96	48	4
STR	48	288	5
SI_	48	288	5	96	48	0
TAP	49	0	1
TAP	49	0	5
TAP	49	96	2
TAP	49	96	6
TAP	49	144	2
STR	49	144	6
SI_	49	144	6	96	48	2
STR	49	240	0
SLL	49	240	0	96	96	4
SLR	49	240	0	96	96	4
TAP	49	240	6
TAP	49	336	0
TAP	50	96	2
TAP	50	96	6
TAP	50	168	0
TAP	50	192	7
TAP	50	216	0
TAP	50	240	7
TAP	50	264	0
XTP	50	288	1
XTP	50	288	6
TAP	51	0	1
TAP	51	0	3
TAP	51	48	6
TAP	51	96	2
TAP	51	96	4
TAP	51	144	7
TAP	51	192	3
TAP	51	192	5
TAP	51	240	0
TAP	51	288	4
TAP	51	288	6
STR	51	336	1
SLR	51	336	1	96	96	7
TAP	52	48	7
TAP	52	96	6
TAP	52	144	5
XST	52	192	0
SCR	52	192	0	96	48	3
XST	52	192	4
SCR	52	192	4	96	48	7
TAP	53	0	4
TAP	53	0	6
TAP	53	48	1
TAP	53	96	3
TAP	53	96	5
TAP	53	144	0
TAP	53	192	2
TAP	53	192	4
TAP	53	240	7
TAP	53	288	1
TAP	53	288	3
STR	53	336	7
SCL	53	336	7	96	48	4
STR	54	0	0
SCR	54	0	0	96	48	3
STR	54	48	7
SI_	54	48	7	96	48	3
STR	54	96	0
SI_	54	96	0	96	48	4
XTP	54	144	7
BRK	54	192	0
TAP	54	288	3
TAP	54	288	7
XTP	55	0	1
XTP	55	0	5
TAP	55	48	3
TAP	55	96	2
TAP	55	96	4
TAP	55	144	1
TAP	55	192	3
TAP	55	192	5
TAP	55	240	4
TAP	55	288	2
TAP	55	288	6
STR	55	336	7
SCL	55	336	7	96	48	4
TAP	56	0	0
TAP	56	48	1
TAP	56	96	2
TAP	56	144	3
STR	56	192	1
SI_	56	192	1	96	48	5
TAP	56	192	5
TAP	56	288	7
TAP	57	0	2
TAP	57	0	6
TAP	57	48	4
TAP	57	96	3
TAP	57	96	5
TAP	57	144	6
TAP	57	192	2
TAP	57	192	4
TAP	57	240	3
TAP	57	288	1
TAP	57	288	5
TAP	57	336	1
TAP	57	336	5
TAP	58	48	2
TAP	58	48	6
STR	58	96	3
SCL	58	96	3	96	48	0
STR	58	96	7
SCL	58	96	7	96	48	4
STR	58	144	0
SV_	58	144	0	96	48	3
STR	58	144	4
SV_	58	144	4	96	48	7
XTP	58	192	3
XTP	58	192	7
TAP	59	0	1
TAP	59	0	6
TAP	59	96	2
TAP	59	96	5
TAP	59	192	3
TAP	59	192	4
TTP	59	288	0	C	0	M1
HLD	60	0	6	72
TAP	60	0	7
HLD	60	72	5	72
TAP	60	144	4
TAP	60	192	0
HLD	60	192	1	72
HLD	60	264	2	72
TAP	60	336	3
STR	61	0	6
SCL	61	0	6	96	96	3
STR	61	96	3
SCL	61	96	3	96	96	0
STR	61	192	0
SCL	61	192	0	96	96	5
TAP	61	288	5
HLD	62	0	2	72
HLD	62	72	3	72
TAP	62	144	4
STR	62	192	2
SI_	62	192	2	96	48	4
STR	62	192	5
SI_	62	192	5	96	48	3
TAP	62	240	1
TAP	62	240	6
TAP	63	0	0
TAP	63	0	7
TAP	63	48	1
TAP	63	48	6
TAP	63	96	2
TAP	63	120	3
TAP	63	168	3
TAP	63	192	1
TAP	63	240	2
TAP	63	240	4
TAP	63	288	5
TAP	63	312	4
TAP	63	360	4
TAP	64	0	6
TAP	64	48	3
TAP	64	48	5
TAP	64	96	2
TAP	64	120	3
TAP	64	168	3
TAP	64	192	2
TAP	64	240	1
TAP	64	240	3
TAP	64	288	5
TAP	64	312	4
TAP	64	360	4
TAP	65	0	5
TAP	65	48	4
TAP	65	48	6
TAP	65	96	3
TAP	65	120	4
TAP	65	168	4
TAP	65	192	2
TAP	65	240	1
TAP	65	240	3
TAP	65	288	4
TAP	65	312	3
TAP	65	360	3
TAP	66	0	5
TAP	66	48	4
TAP	66	48	6
TAP	66	96	3
TAP	66	120	4
TAP	66	144	3
TAP	66	168	4
TAP	66	192	3
TAP	66	240	2
TAP	66	240	5
STR	66	288	1
SUR	66	288	1	96	336	2
STR	66	288	6
SUL	66	288	6	96	336	5
TAP	66	336	0
TAP	66	336	7
TTP	68	0	0	B	0	M1
TTP	68	0	0	C	1	M1
TTP	68	0	0	E	0	M1
TTP	68	0	3	B	0	M1
TTP	68	0	4	B	0	M1
TTP	68	0	4	E	0	M1
TTP	68	0	7	B	0	M1
TAP	68	288	3
HLD	68	288	4	2304
TAP	69	96	3
TAP	69	192	3
TAP	70	0	3
TAP	70	336	3
TAP	71	0	3
TAP	71	192	3
TAP	72	0	3
TAP	72	192	3
TAP	73	0	3
TAP	73	96	3
TAP	73	192	3
TAP	73	288	3
TAP	74	0	3
TAP	74	144	3
TAP	74	288	5
TAP	74	304	4
TAP	74	320	3
TAP	74	336	2
TAP	74	360	5
XTP	75	288	0
XTP	75	304	7
XTP	75	320	0
XTP	75	336	7
XTP	75	352	0
XTP	75	368	7
BRK	76	0	1
BRK	76	0	6
TAP	76	96	3
TAP	76	96	4
STR	76	144	2
SI_	76	144	2	96	48	5
TAP	76	144	5
STR	76	240	6
SI_	76	240	6	96	48	1
TAP	76	288	6
TAP	76	336	2
TAP	77	0	3
TAP	77	48	4
TAP	77	48	5
TAP	77	96	6
TAP	77	144	7
TAP	77	192	2
TAP	77	192	3
TAP	77	240	1
TAP	77	288	0
TAP	77	336	1
TAP	77	336	7
STR	78	0	2
SLR	78	0	2	96	96	1
BRK	78	0	6
TAP	78	96	2
TAP	78	96	4
STR	78	144	6
SI_	78	144	6	96	48	2
STR	78	240	0
SI_	78	240	0	96	48	4
TAP	78	240	6
TAP	78	336	0
HLD	78	336	7	96
TAP	79	48	3
TAP	79	96	4
TAP	79	144	3
TAP	79	144	5
STR	79	192	2
SI_	79	192	2	96	48	7
STR	79	192	6
SI_	79	192	6	96	48	3
TTP	79	288	0	C	1	M1
XTP	79	288	2
XTP	79	288	6
TAP	80	0	1
TAP	80	0	5
TAP	80	48	0
TAP	80	96	2
TAP	80	96	7
TAP	80	144	6
TAP	80	192	0
TAP	80	192	5
TAP	80	240	1
TAP	80	288	2
TAP	80	288	6
TAP	80	336	2
STR	80	336	6
SLL	80	336	6	96	96	0
TAP	81	48	0
TAP	81	96	1
TAP	81	144	2
XST	81	192	3
SCL	81	192	3	96	48	0
XST	81	192	7
SCL	81	192	7	96	48	4
STR	82	0	1
SI_	82	0	1	96	48	5
TAP	82	96	1
TAP	82	96	5
STR	82	144	6
SI_	82	144	6	96	48	2
TAP	82	240	2
TAP	82	240	6
XTP	82	288	0
XTP	82	336	0
TAP	82	348	1
TAP	82	360	2
TAP	82	372	3
TAP	83	0	4
TAP	83	12	5
TAP	83	24	6
TAP	83	36	7
TAP	83	48	0
TAP	83	60	1
TAP	83	72	2
TAP	83	84	3
TAP	83	96	4
TAP	83	108	5
TAP	83	120	6
TAP	83	132	7
TAP	83	144	0
TAP	83	156	1
TAP	83	168	2
TAP	83	180	3
TAP	83	192	4
TAP	83	204	5
TAP	83	216	6
TAP	83	228	7
TAP	83	240	0
TAP	83	252	1
TAP	83	264	2
TAP	83	276	3
TAP	83	288	4
TAP	83	300	5
TAP	83	312	6
TAP	83	324	7
BRK	83	336	0
THO	83	336	0	288	C	1	M1
TAP	85	0	0
TAP	85	0	7
TAP	85	48	0
TAP	85	48	7
STR	85	96	1
SI_	85	96	1	96	48	4
TAP	85	120	0
TAP	85	168	0
TAP	85	192	1
TAP	85	240	5
STR	85	288	6
SI_	85	288	6	96	48	2
TAP	85	312	7
TAP	85	360	7
TAP	86	0	6
TAP	86	48	0
STR	86	96	0
SI_	86	96	0	96	48	4
TAP	86	120	7
TAP	86	168	7
TAP	86	192	0
TAP	86	240	6
TAP	86	288	3
TAP	86	288	5
TAP	86	336	2
TAP	86	336	4
TAP	87	0	1
TAP	87	0	3
TAP	87	48	0
TAP	87	48	7
STR	87	96	6
SI_	87	96	6	96	48	3
TAP	87	120	7
TAP	87	168	7
TAP	87	192	6
TAP	87	240	2
STR	87	288	1
SI_	87	288	1	96	48	5
TAP	87	312	0
TAP	87	360	0
TAP	88	0	1
TAP	88	48	7
STR	88	96	7
SI_	88	96	7	96	48	3
TAP	88	120	0
TAP	88	168	0
TAP	88	192	7
TAP	88	240	2
TAP	88	288	4
TAP	88	288	5
BRK	88	336	0
BRK	88	336	7

T_REC_TAP	542
T_REC_BRK	18
T_REC_XTP	32
T_REC_HLD	34
T_REC_XHO	2
T_REC_STR	77
T_REC_BST	2
T_REC_XST	5
T_REC_TTP	34
T_REC_THO	1
T_REC_SLD	85
T_REC_ALL	832
T_NUM_TAP	690
T_NUM_BRK	20
T_NUM_HLD	37
T_NUM_SLD	85
T_NUM_ALL	832
T_JUDGE_TAP	710
T_JUDGE_HLD	147
T_JUDGE_SLD	85
T_JUDGE_ALL	942
TTM_EACHPAIRS	155
TTM_SCR_TAP	345000
TTM_SCR_BRK	52000
TTM_SCR_HLD	37000
TTM_SCR_SLD	127500
TTM_SCR_ALL	561500
TTM_SCR_S	542750
TTM_SCR_SS	559500
TTM_RAT_ACV	10035

