VERSION	0.00.00	1.03.00
FES_MODE	0
BPM_DEF	164.000	164.000	164.000	164.000
MET_DEF	4	4
RESOLUTION	384
CLK_DEF	384
COMPATIBLE_CODE	MA2

BPM	0	0	164.000
MET	0	0	4	4

BST	1	288	0
SI_	1	288	0	96	480	3
HLD	2	0	6	480
STR	3	288	7
SI_	3	288	7	96	480	4
HLD	4	0	1	480
STR	5	288	3
SI_	5	288	3	96	480	0
HLD	6	0	5	576
STR	7	288	4
SI_	7	288	4	96	480	7
HLD	8	0	2	576
TAP	10	0	0
HLD	10	0	7	96
TAP	10	96	5
HLD	10	192	0	96
TAP	10	192	7
TAP	10	288	2
TAP	11	0	0
HLD	11	0	7	96
TAP	11	96	5
XTP	11	192	1
XTP	11	288	1
HLD	12	0	0	96
TAP	12	0	7
TAP	12	96	2
TAP	12	192	0
HLD	12	192	7	96
TAP	12	288	5
HLD	13	0	0	96
TAP	13	0	7
TAP	13	96	2
XTP	13	192	6
XTP	13	288	6
TAP	14	0	4
HLD	14	0	5	96
TAP	14	96	0
HLD	14	192	2	96
TAP	14	192	3
TAP	14	288	7
TAP	15	0	4
HLD	15	0	5	96
TAP	15	96	0
XTP	15	192	1
XTP	15	288	1
HLD	16	0	2	96
TAP	16	0	3
TAP	16	96	7
TAP	16	192	4
HLD	16	192	5	96
TAP	16	288	0
HLD	17	0	2	96
TAP	17	0	3
STR	17	96	7
SSR	17	96	7	96	144	3
STR	18	0	0
SI_	18	0	0	96	48	4
TAP	18	192	5
TAP	18	288	6
HLD	18	336	6	96
TAP	19	48	4
TAP	19	96	4
STR	19	192	3
SI_	19	192	3	96	48	0
TAP	19	192	5
STR	20	0	6
SI_	20	0	6	96	48	3
TAP	20	192	2
TAP	20	288	1
HLD	20	336	1	96
TAP	21	48	3
TAP	21	96	3
TAP	21	192	0
TAP	21	192	4
TAP	21	288	5
HLD	22	0	6	96
TAP	22	96	4
HLD	22	144	4	96
TAP	22	240	3
HLD	22	288	3	96
TAP	23	0	1
HLD	23	48	1	96
HLD	23	144	6	96
TAP	23	240	0
HLD	23	288	0	96
STR	24	0	7
SI_	24	0	7	96	48	3
HLD	24	192	2	96
TAP	24	288	4
TAP	24	336	4
TAP	25	48	3
TAP	25	48	5
TAP	25	96	3
TAP	25	96	5
XTP	25	192	2
XTP	25	192	6
STR	26	0	7
SI_	26	0	7	96	48	3
TAP	26	192	2
TAP	26	288	1
HLD	26	336	1	96
TAP	27	48	3
TAP	27	96	3
TAP	27	192	2
STR	27	192	4
SI_	27	192	4	96	48	7
STR	28	0	1
SI_	28	0	1	96	48	4
TAP	28	192	5
TAP	28	288	6
HLD	28	336	6	96
TAP	29	48	4
TAP	29	96	4
TAP	29	192	3
TAP	29	192	7
TAP	29	288	2
HLD	30	0	1	96
TAP	30	96	3
HLD	30	144	3	96
TAP	30	240	4
HLD	30	288	4	96
TAP	31	0	6
STR	31	96	0
SI_	31	96	0	96	48	3
STR	31	96	7
SI_	31	96	7	96	48	4
XTP	31	336	1
XTP	31	336	6
XTP	32	0	1
XTP	32	0	6
HLD	32	144	5	96
TAP	32	240	4
TAP	32	336	3
TAP	33	48	2
TAP	33	48	4
TAP	33	96	2
TAP	33	96	4
XTP	33	192	3
XTP	33	192	5
XTP	33	288	4
XTP	33	288	6
HLD	34	0	7	96
HLD	34	144	0	96
HLD	34	144	6	96
TAP	34	288	1
HLD	34	288	5	96
STR	35	0	3
SI_	35	0	3	96	48	7
STR	35	192	6
SI_	35	192	6	96	48	2
HLD	36	0	0	96
HLD	36	144	1	96
HLD	36	144	7	96
HLD	36	288	2	96
TAP	36	288	6
STR	37	0	4
SI_	37	0	4	96	48	0
STR	37	192	1
SI_	37	192	1	96	48	5
HLD	38	0	6	384
TAP	38	96	4
TAP	38	192	4
TAP	38	288	3
HLD	39	0	1	288
TAP	39	96	3
TAP	39	192	3
TAP	39	288	4
HLD	40	0	5	72
HLD	40	72	6	72
TAP	40	144	7
HLD	40	192	0	72
HLD	40	264	1	72
TAP	40	336	2
XTP	41	0	3
XTP	41	0	4
XTP	41	72	2
XTP	41	72	5
XHO	41	144	1	144
XHO	41	144	6	144
TTP	42	0	0	C	1	M1
TTP	42	0	2	B	0	M1
TTP	42	0	3	B	0	M1
TTP	42	0	4	B	0	M1
TTP	42	0	5	B	0	M1
BRK	42	288	0
BRK	42	288	7
TAP	43	0	3
TAP	43	0	4
STR	43	96	1
SLR	43	96	1	96	192	7
STR	43	96	6
SLL	43	96	6	96	192	0
XHO	44	144	0	96
TAP	44	240	7
TAP	44	288	7
HLD	45	0	1	96
HLD	45	0	6	96
HLD	45	144	0	96
HLD	45	144	5	96
HLD	45	288	1	96
HLD	45	288	6	96
TAP	46	48	2
HLD	46	48	7	96
TAP	46	144	0
TAP	46	240	1
TAP	46	240	6
TAP	46	288	1
TAP	46	288	6
TAP	47	0	3
TAP	47	0	4
STR	47	96	4
SI_	47	96	4	96	96	1
STR	47	96	5
SI_	47	96	5	96	96	0
TAP	48	0	2
TAP	48	0	3
STR	48	96	4
SCL	48	96	4	96	96	1
STR	48	96	5
SCR	48	96	5	96	96	0
TAP	49	0	2
TAP	49	0	3
TAP	49	96	4
TAP	49	96	5
TAP	49	192	6
TAP	49	192	7
STR	49	288	0
SI_	49	288	0	96	48	4
STR	49	288	1
SI_	49	288	1	96	48	5
XHO	50	144	7	96
TAP	50	240	0
TAP	50	288	0
TAP	51	0	1
TAP	51	0	5
STR	51	96	2
SI_	51	96	2	96	48	5
STR	51	96	6
SI_	51	96	6	96	48	1
HLD	51	336	0	96
TAP	52	48	3
STR	52	96	3
SI_	52	96	3	96	48	0
SI_	52	96	3	96	48	6
TAP	52	336	7
HLD	53	0	7	96
TAP	53	96	4
TAP	53	144	3
TAP	53	192	3
TAP	53	288	1
TAP	53	288	5
TAP	54	0	2
TAP	54	0	6
STR	54	96	2
SCL	54	96	2	96	96	7
STR	54	96	6
SCL	54	96	6	96	96	3
HLD	55	0	5	96
TAP	55	96	4
TAP	55	144	4
TAP	55	240	3
TAP	55	240	6
TAP	55	336	1
TAP	55	336	4
TAP	56	48	0
STR	56	96	0
SI_	56	96	0	96	48	3
SI_	56	96	0	96	48	5
TAP	56	336	6
HLD	57	0	6	96
TAP	57	96	4
TAP	57	144	4
STR	57	240	3
SI_	57	240	3	96	48	0
TAP	57	240	5
XST	58	96	7
SF_	58	96	7	96	96	3
TTP	59	0	2	B	0	M1
TTP	59	0	3	B	0	M1
TTP	59	0	3	E	0	M1
TTP	59	96	4	B	0	M1
TTP	59	96	5	B	0	M1
TTP	59	96	5	E	0	M1
TTP	59	192	0	B	0	M1
TTP	59	192	1	B	0	M1
TTP	59	192	1	E	0	M1
TTP	59	288	6	B	0	M1
TTP	59	288	7	B	0	M1
TTP	59	288	7	E	0	M1
THO	60	0	0	192	C	1	M1
TTP	61	0	5	B	0	M1
TTP	61	0	6	B	0	M1
TTP	61	0	6	E	0	M1
TTP	61	96	1	B	0	M1
TTP	61	96	2	B	0	M1
TTP	61	96	2	E	0	M1
TTP	61	192	3	B	0	M1
TTP	61	192	4	B	0	M1
TTP	61	192	4	E	0	M1
TTP	61	288	0	B	0	M1
TTP	61	288	0	E	0	M1
TTP	61	288	7	B	0	M1
XTP	62	0	1
XTP	62	0	6
XTP	62	96	2
XTP	62	96	5
BRK	62	192	0
BRK	62	192	7
XTP	63	0	1
TAP	63	48	3
XTP	63	96	5
TAP	63	144	3
XTP	63	192	1
XTP	63	288	2
XTP	63	288	4
XTP	64	0	1
TAP	64	48	3
XTP	64	96	5
TAP	64	144	3
XST	64	192	1
SI_	64	192	1	96	48	4
XTP	65	0	6
TAP	65	48	4
XTP	65	96	2
TAP	65	144	4
XTP	65	192	6
XTP	65	288	3
XTP	65	288	5
XTP	66	0	6
TAP	66	48	4
XTP	66	96	2
TAP	66	144	4
XHO	66	192	6	96
BRK	66	288	0
XHO	68	0	0	576
XHO	68	0	7	576
STR	70	0	2
SI_	70	0	2	96	480	6
STR	72	0	5
SI_	72	0	5	96	480	1
STR	74	0	2
SCR	74	0	2	96	288	5
BRK	75	0	7
TAP	75	288	3
TAP	75	288	4
TAP	76	0	4
HLD	76	0	5	96
TAP	76	96	3
HLD	76	192	2	96
TAP	76	192	3
TAP	76	288	4
TAP	77	0	4
HLD	77	0	5	96
TAP	77	96	3
TAP	77	192	2
TAP	77	288	1
TAP	78	0	0
HLD	78	0	1	96
TAP	78	96	7
HLD	78	192	6	96
TAP	78	192	7
TAP	78	288	0
TAP	79	0	0
HLD	79	0	1	96
STR	79	96	7
SCL	79	96	7	96	96	4
XTP	79	288	0
HLD	80	0	1	480
TAP	80	96	3
TAP	80	192	3
TAP	80	288	2
TAP	81	0	0
STR	81	96	0
SI_	81	96	0	96	48	3
HLD	82	0	6	720
TAP	82	96	4
STR	82	192	4
SI_	82	192	4	96	48	7
BRK	83	336	0
XTP	84	144	3
XTP	84	192	5
XHO	84	240	7	144
HLD	85	0	0	96
TAP	85	96	2
TAP	85	192	0
HLD	85	192	7	96
TAP	85	288	5
HLD	86	0	0	96
TAP	86	0	7
TAP	86	96	2
TAP	86	192	4
TAP	86	288	6
TAP	87	0	4
HLD	87	0	6	96
TAP	87	96	7
HLD	87	192	1	96
TAP	87	192	3
TAP	87	288	0
TAP	88	0	4
HLD	88	0	6	96
TAP	88	96	7
XTP	88	192	3
XTP	88	240	5
XTP	88	288	1
BRK	88	336	7

T_REC_TAP	161
T_REC_BRK	8
T_REC_XTP	44
T_REC_HLD	70
T_REC_XHO	8
T_REC_STR	38
T_REC_BST	1
T_REC_XST	2
T_REC_TTP	29
T_REC_THO	1
T_REC_SLD	43
T_REC_ALL	405
T_NUM_TAP	274
T_NUM_BRK	9
T_NUM_HLD	79
T_NUM_SLD	43
T_NUM_ALL	405
T_JUDGE_TAP	283
T_JUDGE_HLD	250
T_JUDGE_SLD	43
T_JUDGE_ALL	576
TTM_EACHPAIRS	76
TTM_SCR_TAP	137000
TTM_SCR_BRK	23400
TTM_SCR_HLD	79000
TTM_SCR_SLD	64500
TTM_SCR_ALL	303900
TTM_SCR_S	293950
TTM_SCR_SS	303000
TTM_RAT_ACV	10029

