VERSION	0.00.00	1.03.00
FES_MODE	0
BPM_DEF	164.000	164.000	164.000	164.000
MET_DEF	4	4
RESOLUTION	384
CLK_DEF	384
COMPATIBLE_CODE	MA2

BPM	0	0	164.000
MET	0	0	4	4

HLD	2	0	1	384
HLD	3	0	0	384
HLD	4	0	7	384
TAP	5	0	6
HLD	6	0	5	384
HLD	7	0	4	384
HLD	8	0	3	384
TAP	9	0	2
TAP	10	0	1
TAP	10	96	1
TAP	10	192	0
TAP	10	192	1
TAP	11	0	6
TAP	11	96	6
TAP	11	192	6
TAP	11	192	7
TAP	12	0	1
TAP	12	96	1
TAP	12	192	0
TAP	12	192	1
TAP	13	0	7
TAP	13	96	7
TAP	13	192	0
TAP	13	192	6
TAP	14	0	5
TAP	14	96	5
TAP	14	192	4
TAP	14	192	5
TAP	15	0	2
TAP	15	96	2
TAP	15	192	2
TAP	15	192	3
TAP	16	0	5
TAP	16	96	5
TAP	16	192	4
TAP	16	192	5
TAP	17	0	3
TAP	17	96	3
XTP	17	192	2
XTP	17	192	4
HLD	18	0	5	192
TAP	18	192	4
HLD	19	0	2	192
TAP	19	192	3
HLD	20	0	5	192
TAP	20	192	4
HLD	21	0	2	96
HLD	21	0	3	96
TAP	21	192	2
TAP	21	192	3
STR	22	0	1
SI_	22	0	1	96	144	4
STR	23	0	5
SI_	23	0	5	96	144	0
TAP	24	0	1
TAP	24	96	1
TAP	24	192	0
TAP	25	0	7
TAP	25	96	7
TAP	25	192	0
TAP	25	192	6
HLD	26	0	1	192
TAP	26	192	0
HLD	27	0	6	192
TAP	27	192	7
HLD	28	0	1	192
TAP	28	192	0
HLD	29	0	6	96
HLD	29	0	7	96
TAP	29	192	6
TAP	29	192	7
STR	30	0	5
SI_	30	0	5	96	144	0
STR	31	0	1
SI_	31	0	1	96	144	4
TAP	32	0	5
TAP	32	96	5
TAP	32	192	4
STR	32	288	3
SI_	32	288	3	96	144	7
STR	32	288	4
SI_	32	288	4	96	144	0
TTP	34	0	6	B	0	L1
TTP	34	0	7	E	0	L1
TTP	34	192	4	B	0	L1
TTP	34	192	5	E	0	L1
TTP	35	0	3	E	0	L1
TTP	35	96	2	B	0	L1
TTP	35	192	1	B	0	L1
TTP	36	0	6	B	0	L1
TTP	36	0	7	E	0	L1
TTP	36	192	4	B	0	L1
TTP	36	192	5	E	0	L1
TTP	37	0	1	B	0	L1
TTP	37	96	2	B	0	L1
TTP	37	192	3	E	0	L1
XST	38	0	4
SI_	38	0	4	96	144	7
STR	39	0	0
SI_	39	0	0	96	144	3
TAP	40	0	4
TAP	40	0	5
TAP	40	192	2
TAP	40	192	3
XST	41	0	3
SCL	41	0	3	96	144	0
XST	41	0	4
SCR	41	0	4	96	144	7
BRK	43	0	6
TAP	43	96	6
TAP	43	192	6
TAP	43	192	7
TAP	43	288	6
TAP	43	288	7
TAP	44	0	1
TAP	44	96	1
TAP	44	192	0
TAP	44	192	1
TAP	44	288	0
TAP	44	288	1
TAP	45	0	2
TAP	45	96	2
TAP	45	192	3
TAP	45	288	3
TAP	46	0	4
TAP	46	96	4
TAP	46	192	3
TAP	46	192	5
HLD	47	0	6	96
TAP	47	96	7
TAP	47	192	0
TAP	47	192	5
HLD	48	0	1	96
TAP	48	96	0
TAP	48	192	2
TAP	48	192	7
TAP	49	0	2
TAP	49	96	2
TAP	49	96	3
TAP	49	192	5
TAP	49	288	4
TAP	49	288	5
TAP	50	0	3
TAP	50	96	3
TAP	50	96	4
TAP	50	192	2
TAP	50	192	5
BRK	51	0	5
TAP	51	96	5
TAP	51	192	4
TAP	51	192	5
TAP	51	288	4
TAP	51	288	5
TAP	52	0	2
TAP	52	96	2
TAP	52	192	2
TAP	52	192	3
TAP	52	288	2
TAP	52	288	3
TAP	53	0	1
TAP	53	96	1
TAP	53	192	0
TAP	53	288	0
TAP	54	0	7
TAP	54	96	7
TAP	54	192	0
TAP	54	192	6
HLD	55	0	5	96
TAP	55	96	4
TAP	55	192	3
TAP	55	192	6
HLD	56	0	2	96
TAP	56	96	3
TAP	56	192	1
TAP	56	192	4
TAP	57	0	5
TAP	57	96	5
TAP	57	192	6
TAP	57	288	6
TAP	58	0	7
TAP	58	96	0
TAP	58	96	7
TAP	58	192	1
TAP	58	192	6
BST	59	0	5
SXL	59	0	5	96	480	0
STR	61	0	1
SXL	61	0	1	96	480	4
TAP	63	0	5
TAP	63	96	5
TAP	63	192	4
TAP	64	0	2
TAP	64	96	2
TAP	64	192	3
TAP	65	0	5
TAP	65	96	5
TAP	65	192	4
TAP	65	288	4
TAP	66	0	3
TAP	66	96	2
TAP	66	192	1
STR	66	288	0
SI_	66	288	0	96	144	4
TTP	68	0	4	E	0	L1
TTP	69	0	3	E	0	L1
TTP	70	0	2	E	0	L1
TTP	71	0	1	E	0	L1
TTP	72	0	0	E	0	L1
TTP	73	0	7	E	0	L1
TTP	74	0	6	E	0	L1
TTP	75	0	5	E	0	L1
BRK	76	0	2
TAP	76	96	2
TAP	76	96	3
TAP	76	192	2
TAP	76	288	2
TAP	76	288	3
TAP	77	0	5
TAP	77	96	4
TAP	77	96	5
TAP	77	192	5
TAP	77	288	4
TAP	77	288	5
TAP	78	0	6
TAP	78	96	6
TAP	78	192	7
TAP	78	288	7
TAP	79	0	0
TAP	79	96	0
TAP	79	192	1
TAP	79	192	7
HLD	80	0	2	96
TAP	80	96	3
TAP	80	192	1
TAP	80	192	4
HLD	81	0	5	96
TAP	81	96	4
TAP	81	192	3
TAP	81	192	6
TAP	82	0	2
TAP	82	96	2
TAP	82	192	1
TAP	82	288	1
TAP	83	0	0
TAP	83	96	0
TAP	83	192	7
STR	83	288	0
SI_	83	288	0	96	144	3
STR	83	288	7
SI_	83	288	7	96	144	4
XTP	85	0	5
TAP	85	96	5
TAP	85	192	4
TAP	85	192	5
TAP	86	0	2
TAP	86	96	2
TAP	86	192	2
TAP	86	192	3
TAP	87	0	1
TAP	87	96	1
TAP	87	192	0
TAP	87	192	1
TAP	88	0	7
TAP	88	96	7
TAP	88	192	0
TAP	88	192	7
BST	88	288	1
SXL	88	288	1	96	480	7
BST	88	288	6
SXR	88	288	6	96	480	0

T_REC_TAP	186
T_REC_BRK	3
T_REC_XTP	3
T_REC_HLD	22
T_REC_XHO	0
T_REC_STR	11
T_REC_BST	3
T_REC_XST	3
T_REC_TTP	22
T_REC_THO	0
T_REC_SLD	17
T_REC_ALL	270
T_NUM_TAP	225
T_NUM_BRK	6
T_NUM_HLD	22
T_NUM_SLD	17
T_NUM_ALL	270
T_JUDGE_TAP	231
T_JUDGE_HLD	92
T_JUDGE_SLD	17
T_JUDGE_ALL	340
TTM_EACHPAIRS	50
TTM_SCR_TAP	112500
TTM_SCR_BRK	15600
TTM_SCR_HLD	22000
TTM_SCR_SLD	25500
TTM_SCR_ALL	175600
TTM_SCR_S	169750
TTM_SCR_SS	175000
TTM_RAT_ACV	10034

