VERSION	0.00.00	1.03.00
FES_MODE	0
BPM_DEF	164.000	164.000	164.000	164.000
MET_DEF	4	4
RESOLUTION	384
CLK_DEF	384
COMPATIBLE_CODE	MA2

BPM	0	0	164.000
MET	0	0	4	4

HLD	2	0	7	384
HLD	4	0	0	384
TAP	6	0	7
TAP	6	192	7
TAP	7	0	7
TAP	8	0	0
TAP	8	192	0
XTP	9	0	0
XTP	9	0	7
TAP	10	0	6
TAP	10	192	6
TAP	11	0	5
TAP	11	96	5
TAP	11	192	5
TAP	12	0	4
TAP	12	192	4
TAP	13	0	3
TAP	13	96	3
TAP	13	192	3
TAP	14	0	2
TAP	14	192	2
TAP	15	0	1
TAP	15	96	1
TAP	15	192	1
TAP	16	0	0
TAP	16	192	0
TAP	17	0	0
TAP	17	0	7
TAP	17	192	0
TAP	17	192	7
HLD	18	0	1	192
TAP	19	0	1
TAP	19	192	1
HLD	20	0	2	192
TAP	21	0	2
TAP	21	192	2
HLD	22	0	3	192
TAP	23	0	3
TAP	23	192	3
TAP	24	0	4
TAP	24	192	4
XTP	25	0	3
XTP	25	0	4
HLD	26	0	4	192
TAP	27	0	4
TAP	27	96	4
TAP	27	192	4
HLD	28	0	5	192
TAP	29	0	5
TAP	29	96	5
TAP	29	192	5
HLD	30	0	6	192
TAP	31	0	6
TAP	31	96	6
TAP	31	192	6
HLD	32	0	7	192
XTP	33	0	0
XTP	33	0	7
STR	34	0	7
SI_	34	0	7	96	288	4
TAP	35	192	3
STR	36	0	3
SI_	36	0	3	96	288	0
TAP	37	192	7
STR	38	0	7
SI_	38	0	7	96	288	3
TAP	39	192	2
TAP	40	0	2
TAP	40	192	1
TAP	40	288	1
TAP	41	0	1
HLD	41	192	0	192
BRK	43	0	7
TAP	43	96	7
TAP	43	192	7
TAP	44	0	6
TAP	44	96	6
TAP	44	192	6
TAP	45	0	5
TAP	45	96	5
TAP	45	192	5
TAP	46	0	3
TAP	46	0	4
TAP	46	192	3
TAP	46	192	4
TAP	47	0	2
TAP	47	96	2
TAP	47	192	2
TAP	48	0	1
TAP	48	96	1
TAP	48	192	1
TAP	49	0	0
TAP	49	96	0
TAP	49	192	0
TAP	50	0	0
TAP	50	0	7
TAP	50	192	0
TAP	50	192	7
TAP	51	0	1
TAP	51	96	1
TAP	51	192	1
TAP	51	288	1
TAP	52	0	2
TAP	52	96	2
BRK	52	192	2
TAP	53	0	3
TAP	53	96	3
TAP	53	192	3
TAP	53	288	3
TAP	54	0	4
TAP	54	96	4
TAP	54	192	3
TAP	54	192	4
TAP	55	0	5
TAP	55	96	5
TAP	55	192	5
TAP	55	288	5
TAP	56	0	6
TAP	56	96	6
TAP	56	192	6
TAP	57	0	7
TAP	57	96	7
TAP	57	192	7
TAP	57	288	7
XTP	58	0	0
XTP	58	0	7
XTP	58	96	0
XTP	58	96	7
BRK	58	192	0
BRK	58	192	7
XHO	59	0	0	384
XHO	59	0	1	384
XHO	61	0	6	384
XHO	61	0	7	384
TAP	63	0	0
TAP	63	96	0
TAP	63	192	0
TAP	64	0	1
TAP	64	0	7
TAP	64	192	1
TAP	64	192	7
TAP	65	0	7
TAP	65	96	7
TAP	65	192	7
TAP	66	0	0
TAP	66	0	6
HLD	66	192	0	192
HLD	66	192	6	192
TTP	68	0	7	B	0	L1
TTP	69	0	6	B	0	L1
TTP	70	0	5	B	0	L1
TTP	71	0	4	B	0	L1
TTP	72	0	3	B	0	L1
TTP	73	0	2	B	0	L1
TTP	74	0	1	B	0	L1
TTP	75	0	0	C	0	L1
TAP	76	0	7
TAP	76	96	7
TAP	76	192	6
TAP	76	288	6
TAP	77	0	5
TAP	77	96	5
TAP	77	192	4
TAP	77	192	5
TAP	77	288	4
TAP	77	288	5
TAP	78	0	3
TAP	78	96	3
TAP	78	192	2
TAP	78	288	2
TAP	79	0	1
TAP	79	96	1
TAP	79	192	0
TAP	79	192	1
TAP	79	288	0
TAP	79	288	1
TAP	80	0	2
TAP	80	96	2
TAP	80	192	3
TAP	80	288	3
TAP	81	0	4
TAP	81	96	4
BRK	81	192	3
BRK	81	192	4
TAP	82	0	2
TAP	82	0	5
TAP	82	96	2
TAP	82	96	5
TAP	82	192	1
TAP	82	192	6
TAP	82	288	1
TAP	82	288	6
TAP	83	0	0
TAP	83	0	7
TAP	83	96	0
TAP	83	96	7
TAP	83	192	1
TAP	83	192	6
HLD	83	288	1	240
HLD	83	288	6	240
BRK	85	0	0
BRK	85	0	7
TAP	85	96	0
TAP	85	96	7
TAP	85	192	1
TAP	85	288	2
TAP	86	0	3
TAP	86	0	4
TAP	86	96	3
TAP	86	96	4
TAP	86	192	5
TAP	86	288	6
TAP	87	0	7
TAP	87	96	7
TAP	87	192	0
TAP	87	288	0
TAP	88	0	0
TAP	88	0	7
TAP	88	96	1
TAP	88	96	6
TAP	88	192	2
TAP	88	192	5
XTP	88	288	3
XTP	88	288	4
XTP	88	336	3
XTP	88	336	4

T_REC_TAP	172
T_REC_BRK	8
T_REC_XTP	14
T_REC_HLD	14
T_REC_XHO	4
T_REC_STR	3
T_REC_BST	0
T_REC_XST	0
T_REC_TTP	8
T_REC_THO	0
T_REC_SLD	3
T_REC_ALL	226
T_NUM_TAP	197
T_NUM_BRK	8
T_NUM_HLD	18
T_NUM_SLD	3
T_NUM_ALL	226
T_JUDGE_TAP	205
T_JUDGE_HLD	98
T_JUDGE_SLD	3
T_JUDGE_ALL	306
TTM_EACHPAIRS	41
TTM_SCR_TAP	98500
TTM_SCR_BRK	20800
TTM_SCR_HLD	18000
TTM_SCR_SLD	4500
TTM_SCR_ALL	141800
TTM_SCR_S	136800
TTM_SCR_SS	141000
TTM_RAT_ACV	10056

