VERSION	0.00.00	1.03.00
FES_MODE	0
BPM_DEF	114.072	114.072	114.072	 40.000
MET_DEF	4	4
RESOLUTION	384
CLK_DEF	384
COMPATIBLE_CODE	MA2

BPM	0	0	114.072
BPM	38	0	114.072
BPM	38	256	 85.000
BPM	38	288	 77.000
BPM	38	320	 65.000
BPM	38	352	 40.000
MET	0	0	4	4

XTP	1	0	0
XTP	1	12	1
XTP	1	24	2
XTP	1	36	3
XTP	1	48	4
XTP	1	60	5
XTP	1	72	6
XTP	1	84	7
XTP	1	96	0
XTP	1	108	1
XTP	1	120	2
XTP	1	132	3
XTP	1	144	4
XTP	1	156	5
XTP	1	168	6
XTP	1	180	7
XTP	1	192	0
XTP	1	204	1
XTP	1	216	2
XTP	1	228	3
XTP	1	240	4
XTP	1	252	5
XTP	1	264	6
XTP	1	276	7
XTP	1	288	0
XTP	1	300	1
XTP	1	312	2
XTP	1	324	3
XTP	1	336	4
XTP	1	348	5
XTP	1	360	6
XTP	1	372	7
XTP	2	0	0
XTP	2	12	1
XTP	2	24	2
XTP	2	36	3
XTP	2	48	4
XTP	2	60	5
XTP	2	72	6
XTP	2	84	7
XTP	2	96	0
XTP	2	108	1
XTP	2	120	2
XTP	2	132	3
XTP	2	144	4
XTP	2	156	5
XTP	2	168	6
XTP	2	180	7
XTP	2	192	0
XTP	2	204	1
XTP	2	216	2
XTP	2	228	3
XTP	2	240	4
XTP	2	252	5
XTP	2	264	6
XTP	2	276	7
XTP	2	288	0
XTP	2	300	1
XTP	2	312	2
XTP	2	324	3
XTP	2	336	4
XTP	2	348	5
XTP	2	360	6
XTP	2	372	7
XTP	3	0	0
TTP	3	0	0	C	1	M1
BRK	3	128	0
BRK	3	128	1
BRK	3	160	2
BRK	3	160	7
BRK	3	192	0
BRK	3	192	1
BST	3	320	6
SV_	3	320	6	96	256	3
BRK	3	320	7
BST	3	352	0
SV_	3	352	0	96	224	3
BRK	3	352	5
BRK	4	0	6
BRK	4	0	7
HLD	5	0	4	320
TAP	5	320	2
TAP	5	352	2
HLD	6	0	1	192
TAP	6	0	3
TAP	6	192	5
TAP	6	224	5
TAP	6	256	5
TAP	6	288	3
TAP	6	320	3
TAP	6	352	3
TAP	7	0	2
HLD	7	0	6	320
TAP	7	320	2
TAP	7	352	2
HLD	8	0	1	192
TAP	8	0	3
TAP	8	192	5
TAP	8	224	5
TAP	8	256	5
TAP	8	288	3
TAP	8	320	3
TAP	8	352	3
BST	9	0	4
SI_	9	0	4	96	48	0
XTP	9	96	0
BRK	9	160	2
BST	9	192	2
SI_	9	192	2	96	48	7
BRK	9	320	6
BRK	9	352	5
BRK	10	0	0
BST	10	0	4
SSL	10	0	4	96	192	0
TAP	11	0	0
STR	11	0	6
SCL	11	0	6	96	48	3
STR	11	192	1
SCR	11	192	1	96	48	4
TAP	11	192	7
TAP	11	288	3
TAP	12	0	0
STR	12	0	6
SCL	12	0	6	96	48	3
TAP	12	48	0
TAP	12	144	2
TAP	12	192	0
STR	12	192	1
SCR	12	192	1	96	48	4
HLD	13	0	6	96
TAP	13	64	5
STR	13	96	5
SUR	13	96	5	96	96	2
TAP	13	160	4
TAP	13	192	4
STR	13	288	5
SCR	13	288	5	96	120	2
TAP	14	0	2
TAP	14	192	3
TAP	14	192	4
TAP	14	288	2
STR	14	288	6
SCL	14	288	6	96	48	3
TAP	14	352	4
TAP	15	0	4
STR	15	96	2
SCL	15	96	2	96	48	7
TAP	15	96	6
TAP	15	160	0
TAP	15	192	0
TAP	15	240	5
STR	15	288	6
SCL	15	288	6	96	48	3
TAP	15	352	7
TAP	16	0	7
TAP	16	48	1
STR	16	96	2
SCL	16	96	2	96	48	7
TAP	16	144	3
TAP	16	192	4
HLD	16	288	5	96
TAP	16	352	4
STR	17	0	4
SI_	17	0	4	96	48	2
STR	17	96	6
SI_	17	96	6	96	48	2
STR	17	192	1
SI_	17	192	1	96	48	5
STR	17	288	0
SF_	17	288	0	96	24	4
TTP	18	0	0	E	0	M1
TTP	18	6	7	B	0	M1
TTP	18	12	0	C	1	M1
TTP	18	18	3	B	0	M1
TTP	18	24	4	E	0	M1
TAP	18	192	1
TAP	18	192	6
TAP	18	224	1
TAP	18	224	6
TAP	18	256	1
TAP	18	256	6
TAP	18	288	1
TAP	18	288	6
TAP	18	336	3
TAP	18	336	4
TAP	19	0	2
HLD	19	0	5	96
TAP	19	48	7
HLD	19	96	4	96
TAP	19	144	7
HLD	19	192	3	96
TAP	19	240	0
HLD	19	288	2	96
TAP	19	336	0
HLD	20	0	3	96
TAP	20	48	0
HLD	20	96	4	96
TAP	20	144	7
HLD	20	192	5	96
TAP	20	240	7
TAP	20	288	4
TAP	20	336	7
STR	21	0	3
SI_	21	0	3	96	48	1
TAP	21	48	2
STR	21	96	4
SI_	21	96	4	96	48	0
TAP	21	144	5
STR	21	192	3
SI_	21	192	3	96	48	7
TAP	21	240	2
STR	21	288	4
SF_	21	288	4	96	36	0
TAP	21	336	5
TTP	22	6	4	E	0	M1
TTP	22	12	3	B	0	M1
TTP	22	18	0	C	1	M1
TTP	22	24	7	B	0	M1
TTP	22	36	0	E	0	M1
TAP	22	192	1
TAP	22	192	3
TAP	22	224	2
TAP	22	224	4
TAP	22	256	3
TAP	22	256	5
TAP	22	288	4
TAP	22	288	6
TAP	22	320	3
TAP	22	320	5
TAP	22	352	2
TAP	22	352	4
STR	23	0	1
SCL	23	0	1	96	48	6
TAP	23	0	3
TAP	23	96	3
TAP	23	144	4
STR	23	192	5
SCL	23	192	5	96	48	2
TAP	23	288	0
BRK	24	0	1
BRK	24	48	3
BRK	24	48	7
BRK	24	144	6
BRK	24	192	0
BRK	24	192	4
TAP	24	288	1
TAP	24	288	3
TAP	24	352	2
STR	25	0	2
SCL	25	0	2	96	48	7
TAP	25	96	0
STR	25	192	5
SCR	25	192	5	96	48	0
STR	25	288	7
SI_	25	288	7	96	48	3
TTP	26	0	0	C	1	M1
TAP	26	192	2
TAP	26	192	4
TAP	26	224	3
TAP	26	224	5
TAP	26	256	4
TAP	26	256	6
TAP	26	288	3
TAP	26	288	7
TAP	26	320	2
TAP	26	320	6
TAP	26	352	1
TAP	26	352	5
STR	27	0	0
SCR	27	0	0	96	192	0
TAP	27	0	4
XTP	27	96	6
TAP	27	144	7
STR	27	192	0
SCR	27	192	0	96	96	4
STR	27	288	4
SCR	27	288	4	96	192	4
TAP	27	336	5
TAP	28	0	6
XST	28	96	4
SCR	28	96	4	96	192	4
TAP	28	144	5
HLD	28	192	6	96
STR	29	0	5
SI_	29	0	5	96	48	1
TAP	29	64	5
STR	29	96	4
SI_	29	96	4	96	48	0
TAP	29	160	4
STR	29	192	3
SI_	29	192	3	96	48	7
STR	29	288	2
SCL	29	288	2	96	96	4
TTP	30	0	0	C	1	M1
TAP	30	192	4
TAP	30	224	4
TAP	30	256	3
TAP	30	256	5
STR	30	288	2
SCR	30	288	2	96	48	5
STR	30	288	6
SCR	30	288	6	96	48	1
BRK	31	0	2
BST	31	0	6
SI_	31	0	6	96	48	2
BST	31	96	2
SCR	31	96	2	96	48	5
BST	31	96	6
SCR	31	96	6	96	48	1
TTP	31	100	0	C	1	M1
BRK	31	192	2
BST	31	192	6
SI_	31	192	6	96	48	2
BRK	31	288	2
BRK	31	288	6
TTP	31	292	0	C	1	M1
BRK	32	0	0
TTP	32	0	0	C	1	M1
BRK	32	64	2
BRK	32	64	5
BRK	32	128	0
BRK	32	128	7
BRK	32	160	0
BRK	32	160	7
BRK	32	192	0
BRK	32	192	7
TTP	32	196	0	E	0	M1
TTP	32	200	7	B	0	M1
TTP	32	204	0	C	1	M1
TTP	32	208	3	B	0	M1
TTP	32	212	4	E	0	M1
BST	32	288	1
SV_	32	288	1	96	32	4
BST	32	288	7
SV_	32	288	7	96	32	4
BRK	32	352	0
BRK	33	0	1
BRK	33	0	7
TTP	33	4	0	C	1	M1
XTP	33	64	3
XTP	33	64	5
XTP	33	96	3
XTP	33	96	5
XTP	33	128	2
XTP	33	128	6
XTP	33	160	2
XTP	33	160	6
XTP	33	192	1
XTP	33	192	7
STR	33	288	3
SI_	33	288	3	96	32	1
STR	33	288	4
SI_	33	288	4	96	32	0
TAP	33	352	2
TAP	33	352	5
BST	34	0	3
SLL	34	0	3	96	192	6
SLL	34	0	3	96	192	6
BRK	34	0	4
TTP	34	4	0	C	1	M1
XTP	35	0	7
XTP	35	12	6
XTP	35	24	5
XTP	35	36	4
XTP	35	48	3
XTP	35	60	2
XTP	35	72	1
XTP	35	84	0
XTP	35	96	7
XTP	35	108	6
XTP	35	120	5
XTP	35	132	4
XTP	35	144	3
XTP	35	156	2
XTP	35	168	1
XTP	35	180	0
XTP	35	192	7
XTP	35	204	6
XTP	35	216	5
XTP	35	228	4
XTP	35	240	3
XTP	35	252	2
XTP	35	264	1
XTP	35	276	0
XTP	35	288	7
XTP	35	300	6
XTP	35	312	5
XTP	35	324	4
XTP	35	336	3
XTP	35	348	2
XTP	35	360	1
XTP	35	372	0
XTP	36	0	7
TTP	36	0	7	E	0	M1
XTP	36	12	6
TTP	36	12	6	E	0	M1
XTP	36	24	5
TTP	36	24	5	E	0	M1
XTP	36	36	4
TTP	36	36	4	E	0	M1
XTP	36	48	3
TTP	36	48	3	E	0	M1
XTP	36	60	2
TTP	36	60	2	E	0	M1
XTP	36	72	1
TTP	36	72	1	E	0	M1
XTP	36	84	0
TTP	36	84	0	E	0	M1
XTP	36	96	7
TTP	36	96	7	E	0	M1
XTP	36	108	6
TTP	36	108	6	E	0	M1
XTP	36	120	5
TTP	36	120	5	E	0	M1
XTP	36	132	4
TTP	36	132	4	E	0	M1
XTP	36	144	3
TTP	36	144	3	E	0	M1
XTP	36	156	2
TTP	36	156	2	E	0	M1
XTP	36	168	1
TTP	36	168	1	E	0	M1
XTP	36	180	0
TTP	36	180	0	E	0	M1
XTP	36	192	7
TTP	36	192	7	E	0	M1
XTP	36	204	6
TTP	36	204	6	E	0	M1
XTP	36	216	5
TTP	36	216	5	E	0	M1
XTP	36	228	4
TTP	36	228	4	E	0	M1
XTP	36	240	3
TTP	36	240	3	E	0	M1
XTP	36	252	2
TTP	36	252	2	E	0	M1
XTP	36	264	1
TTP	36	264	1	E	0	M1
XTP	36	276	0
TTP	36	276	0	E	0	M1
XTP	36	288	7
TTP	36	288	7	E	0	M1
XTP	36	300	6
TTP	36	300	6	E	0	M1
XTP	36	312	5
TTP	36	312	5	E	0	M1
XTP	36	324	4
TTP	36	324	4	E	0	M1
XTP	36	336	3
TTP	36	336	3	E	0	M1
XTP	36	348	2
TTP	36	348	2	E	0	M1
XTP	36	360	1
TTP	36	360	1	E	0	M1
XTP	36	372	0
TTP	36	372	0	E	0	M1
TTP	37	0	0	C	1	M1
XTP	37	0	7
BRK	37	128	0
BRK	37	128	1
BRK	37	160	4
BRK	37	160	7
BRK	37	192	0
BRK	37	192	1
BRK	37	320	6
BRK	37	320	7
BRK	37	352	0
BRK	37	352	3
XHO	38	0	6	192
BRK	38	0	7
TAP	38	192	4
TAP	38	224	5
TAP	38	256	3
STR	38	288	2
SCR	38	288	2	96	72	5
STR	38	288	6
SCR	38	288	6	96	72	1
TAP	38	320	5
TAP	38	352	1
BRK	39	0	2
BST	39	0	6
SI_	39	0	6	96	192	2

T_REC_TAP	119
T_REC_BRK	49
T_REC_XTP	142
T_REC_HLD	14
T_REC_XHO	1
T_REC_STR	36
T_REC_BST	13
T_REC_XST	1
T_REC_TTP	56
T_REC_THO	0
T_REC_SLD	51
T_REC_ALL	482
T_NUM_TAP	354
T_NUM_BRK	62
T_NUM_HLD	15
T_NUM_SLD	51
T_NUM_ALL	482
T_JUDGE_TAP	416
T_JUDGE_HLD	92
T_JUDGE_SLD	51
T_JUDGE_ALL	559
TTM_EACHPAIRS	68
TTM_SCR_TAP	177000
TTM_SCR_BRK	161200
TTM_SCR_HLD	15000
TTM_SCR_SLD	76500
TTM_SCR_ALL	429700
TTM_SCR_S	410800
TTM_SCR_SS	423500
TTM_RAT_ACV	10146

