VERSION	0.00.00	1.03.00
FES_MODE	0
BPM_DEF	114.072	114.072	114.072	 40.000
MET_DEF	4	4
RESOLUTION	384
CLK_DEF	384
COMPATIBLE_CODE	MA2

BPM	0	0	114.072
BPM	38	0	114.072
BPM	38	256	 85.000
BPM	38	288	 77.000
BPM	38	320	 65.000
BPM	38	352	 40.000
MET	0	0	4	4

STR	1	0	0
SCR	1	0	0	96	480	7
XTP	3	0	0
TAP	3	128	1
TAP	3	128	7
TAP	3	160	1
TAP	3	160	7
TAP	3	192	1
TAP	3	192	7
TAP	3	320	0
TAP	3	320	6
TAP	3	352	0
TAP	3	352	6
HLD	4	0	0	96
HLD	4	0	6	96
TAP	4	192	7
TAP	4	224	7
TAP	4	256	7
TAP	4	288	0
TTP	5	0	0	C	0	M1
TTP	5	0	0	E	0	M1
TTP	5	0	3	B	0	M1
TTP	5	0	4	E	0	M1
TTP	5	0	7	B	0	M1
TTP	5	320	0	C	0	M1
TTP	5	320	3	B	0	M1
TTP	5	320	4	B	0	M1
TTP	5	320	5	B	0	M1
TTP	5	320	5	E	0	M1
TTP	6	0	0	B	0	M1
TTP	6	0	6	B	0	M1
TTP	6	0	7	B	0	M1
TTP	6	0	7	E	0	M1
TTP	6	192	0	C	0	M1
TTP	6	192	2	B	0	M1
TTP	6	224	3	B	0	M1
TTP	6	256	4	B	0	M1
TTP	6	288	5	B	0	M1
TTP	6	320	6	B	0	M1
TTP	6	352	7	B	0	M1
TTP	7	0	0	B	0	M1
TTP	7	320	0	C	0	M1
TTP	7	320	2	B	0	M1
TTP	7	320	3	E	0	M1
TTP	7	320	5	B	0	M1
TTP	7	320	5	E	0	M1
TTP	8	0	0	B	0	M1
TTP	8	0	1	B	0	M1
TTP	8	0	6	B	0	M1
TTP	8	0	7	B	0	M1
TAP	8	192	4
TAP	8	224	4
TAP	8	256	4
TAP	8	288	3
HLD	9	0	2	96
HLD	9	0	5	96
TAP	9	160	1
TAP	9	160	6
TAP	9	192	1
TAP	9	192	6
TAP	9	320	0
TAP	9	320	7
TAP	9	352	0
TAP	9	352	7
HLD	10	0	0	192
HLD	10	0	7	192
TAP	10	256	1
TAP	10	256	6
TAP	10	288	1
TAP	10	288	6
TAP	10	352	3
TAP	10	352	4
TAP	11	0	3
STR	11	0	4
SCR	11	0	4	96	96	7
STR	11	192	3
SCL	11	192	3	96	96	0
TAP	12	0	7
HLD	12	48	7	96
TAP	12	144	0
TAP	12	192	0
TAP	12	288	1
TAP	12	288	6
STR	13	0	2
SCR	13	0	2	96	96	5
STR	13	192	6
SCR	13	192	6	96	96	1
TAP	14	0	3
TAP	14	96	2
TAP	14	96	4
TAP	14	192	1
TAP	14	192	5
TAP	14	288	6
TAP	14	352	7
TAP	15	0	7
TTP	15	96	3	E	0	M1
TTP	15	160	2	E	0	M1
TTP	15	192	1	B	0	M1
TAP	15	240	4
TAP	15	288	6
TAP	15	352	7
TAP	16	0	7
TTP	16	48	4	E	0	M1
TTP	16	96	3	E	0	M1
TTP	16	144	2	E	0	M1
TTP	16	192	1	E	0	M1
STR	16	288	5
SCR	16	288	5	96	96	0
STR	17	96	1
SCR	17	96	1	96	96	4
STR	17	288	7
SF_	17	288	7	96	96	3
TAP	18	192	2
TAP	18	224	2
TAP	18	256	2
TAP	18	288	3
HLD	19	0	5	96
TAP	19	48	4
HLD	19	96	2	96
TAP	19	144	3
HLD	19	192	5	96
TAP	19	240	4
HLD	19	288	2	96
TAP	19	336	3
HLD	20	0	6	96
TAP	20	48	4
HLD	20	96	1	96
TAP	20	144	3
HLD	20	192	6	96
TAP	20	240	4
HLD	20	288	1	96
TAP	20	336	3
HLD	21	0	6	96
TAP	21	48	7
HLD	21	96	1	96
TAP	21	144	0
HLD	21	192	6	96
TAP	21	240	7
HLD	21	288	1	96
TAP	21	336	0
HLD	22	0	5	96
TAP	22	48	7
HLD	22	96	2	96
TAP	22	144	0
TAP	22	192	6
TAP	22	224	6
TAP	22	256	6
TAP	22	288	1
TAP	22	320	1
TAP	22	352	1
STR	23	0	7
SI_	23	0	7	96	96	4
STR	23	192	3
SI_	23	192	3	96	96	0
TAP	24	0	4
HLD	24	48	4	96
TAP	24	144	3
TAP	24	192	3
TTP	24	288	4	E	0	M1
TTP	25	0	3	E	0	M1
TTP	25	0	5	E	0	M1
TTP	25	96	2	E	0	M1
TTP	25	96	6	E	0	M1
TTP	25	192	1	E	0	M1
TTP	25	192	7	E	0	M1
TTP	25	288	0	E	0	M1
TTP	26	0	0	C	1	M1
TTP	26	0	3	B	0	M1
TTP	26	0	4	B	0	M1
TAP	26	288	0
TAP	26	288	7
TAP	27	0	1
TAP	27	0	3
STR	27	96	4
SI_	27	96	4	96	96	7
SCL	27	96	4	96	96	1
TAP	27	96	6
TAP	28	0	4
TAP	28	0	6
TAP	28	96	1
STR	28	96	3
SI_	28	96	3	96	96	0
SCR	28	96	3	96	96	6
STR	29	0	3
SI_	29	0	3	96	48	0
STR	29	96	4
SI_	29	96	4	96	48	7
STR	29	192	3
SI_	29	192	3	96	48	0
STR	29	288	4
SUL	29	288	4	96	240	1
SXL	29	288	4	96	240	0
TTP	31	0	0	C	1	M1
TTP	31	0	0	E	0	M1
TTP	31	0	3	B	0	M1
TTP	31	0	4	E	0	M1
TTP	31	0	7	B	0	M1
TTP	31	192	0	C	1	M1
TTP	31	192	0	E	0	M1
TTP	31	192	3	B	0	M1
TTP	31	192	4	E	0	M1
TTP	31	192	7	B	0	M1
TTP	32	0	0	C	1	M1
TTP	32	0	0	E	0	M1
TTP	32	0	3	B	0	M1
TTP	32	0	4	E	0	M1
TTP	32	0	7	B	0	M1
TAP	32	288	0
TAP	32	288	6
STR	33	0	0
SV_	33	0	0	96	96	3
STR	33	0	6
SV_	33	0	6	96	96	3
STR	33	288	5
SUL	33	288	5	96	192	4
TAP	34	192	0
TAP	34	224	0
TAP	34	256	0
TAP	34	288	7
TAP	34	320	7
TAP	34	352	7
HLD	35	0	1	96
HLD	35	96	3	96
HLD	35	192	4	96
HLD	35	288	6	96
HLD	36	0	1	96
HLD	36	96	3	96
HLD	36	192	4	96
HLD	36	288	6	96
BRK	37	0	0
TAP	37	128	0
TAP	37	128	6
TAP	37	160	1
TAP	37	160	5
TAP	37	192	2
TAP	37	192	4
TAP	37	320	1
TAP	37	320	7
TAP	37	352	2
TAP	37	352	6
HLD	38	0	3	96
HLD	38	0	5	96
TAP	38	192	2
TAP	38	224	3
TAP	38	256	4
TAP	38	288	5
TAP	38	320	6
TAP	38	352	7
BST	39	0	0
SCL	39	0	0	96	144	1

T_REC_TAP	109
T_REC_BRK	1
T_REC_XTP	1
T_REC_HLD	32
T_REC_XHO	0
T_REC_STR	19
T_REC_BST	1
T_REC_XST	0
T_REC_TTP	64
T_REC_THO	0
T_REC_SLD	23
T_REC_ALL	250
T_NUM_TAP	193
T_NUM_BRK	2
T_NUM_HLD	32
T_NUM_SLD	23
T_NUM_ALL	250
T_JUDGE_TAP	195
T_JUDGE_HLD	136
T_JUDGE_SLD	23
T_JUDGE_ALL	354
TTM_EACHPAIRS	32
TTM_SCR_TAP	96500
TTM_SCR_BRK	5200
TTM_SCR_HLD	32000
TTM_SCR_SLD	34500
TTM_SCR_ALL	168200
TTM_SCR_S	163000
TTM_SCR_SS	168000
TTM_RAT_ACV	10011

