VERSION	0.00.00	1.03.00
FES_MODE	0
BPM_DEF	114.072	114.072	114.072	 40.000
MET_DEF	4	4
RESOLUTION	384
CLK_DEF	384
COMPATIBLE_CODE	MA2

BPM	0	0	114.072
BPM	38	0	114.072
BPM	38	256	 85.000
BPM	38	288	 77.000
BPM	38	320	 65.000
BPM	38	352	 40.000
MET	0	0	4	4

THO	1	0	0	768	C	1	L1
TTP	3	192	0	E	0	L1
TTP	4	0	1	E	0	L1
TTP	4	0	7	E	0	L1
STR	5	0	6
SCL	5	0	6	96	144	3
STR	6	0	2
SCL	6	0	2	96	144	7
STR	7	0	6
SUL	7	0	6	96	144	2
STR	8	0	1
SUR	8	0	1	96	144	5
XTP	9	0	6
XTP	9	0	7
XTP	9	192	0
XTP	9	192	1
XST	10	0	0
SI_	10	0	0	96	144	3
XST	10	0	7
SI_	10	0	7	96	144	4
HLD	11	0	5	192
TAP	11	192	4
HLD	12	0	2	192
TAP	12	192	3
HLD	13	0	5	192
TAP	13	192	4
TAP	14	0	3
TAP	14	96	3
TAP	14	192	2
TAP	14	192	4
HLD	15	0	1	192
TAP	15	192	0
HLD	16	0	6	192
TAP	16	192	7
HLD	17	0	1	192
TAP	17	192	0
STR	18	0	0
SI_	18	0	0	96	144	4
STR	18	0	7
SI_	18	0	7	96	144	3
TTP	19	0	6	E	0	L1
TTP	19	96	5	B	0	L1
TTP	19	192	4	B	0	L1
TTP	20	0	2	E	0	L1
TTP	20	96	2	B	0	L1
TTP	20	192	3	B	0	L1
TTP	21	0	6	B	0	L1
TTP	21	96	5	B	0	L1
TTP	21	192	4	B	0	L1
TTP	21	288	3	B	0	L1
TTP	22	0	2	B	0	L1
TTP	22	96	1	B	0	L1
TTP	22	192	1	E	0	L1
XST	23	0	7
SCL	23	0	7	96	144	4
STR	24	0	3
SCL	24	0	3	96	144	0
TAP	25	0	6
TAP	25	192	0
TAP	25	192	1
TAP	26	0	0
TAP	26	0	7
TAP	26	96	0
TAP	26	96	7
TAP	26	192	1
TAP	26	192	6
TAP	27	0	5
TAP	27	96	5
TAP	27	192	4
TAP	27	192	5
TAP	27	288	4
TAP	27	288	5
TAP	28	0	2
TAP	28	96	2
TAP	28	192	2
TAP	28	192	3
TAP	28	288	2
TAP	28	288	3
TAP	29	0	1
TAP	29	96	1
TAP	29	192	0
TAP	29	288	0
TAP	30	0	7
TAP	30	96	7
TAP	30	192	0
TAP	30	192	6
TAP	31	0	5
BRK	31	96	4
BRK	31	96	5
TAP	31	192	2
BRK	31	288	2
BRK	31	288	3
TAP	32	0	4
TAP	32	96	3
TAP	32	96	4
TAP	32	192	2
TAP	32	192	5
TAP	33	0	6
TAP	33	0	7
TAP	33	96	6
TAP	33	96	7
TAP	33	192	6
TAP	33	192	7
STR	34	0	0
SI_	34	0	0	96	144	4
STR	34	0	1
SI_	34	0	1	96	144	4
TTP	35	0	5	E	0	L1
TTP	35	192	4	E	0	L1
TTP	36	0	3	E	0	L1
TTP	36	192	2	E	0	L1
TTP	37	0	1	E	0	L1
XTP	37	192	0
XTP	37	192	7
STR	38	0	1
SLR	38	0	1	96	192	0
STR	38	0	6
SLL	38	0	6	96	192	7
THO	39	0	0	192	C	1	L1

T_REC_TAP	52
T_REC_BRK	4
T_REC_XTP	6
T_REC_HLD	6
T_REC_XHO	0
T_REC_STR	11
T_REC_BST	0
T_REC_XST	3
T_REC_TTP	21
T_REC_THO	2
T_REC_SLD	14
T_REC_ALL	119
T_NUM_TAP	93
T_NUM_BRK	4
T_NUM_HLD	8
T_NUM_SLD	14
T_NUM_ALL	119
T_JUDGE_TAP	97
T_JUDGE_HLD	96
T_JUDGE_SLD	14
T_JUDGE_ALL	207
TTM_EACHPAIRS	24
TTM_SCR_TAP	46500
TTM_SCR_BRK	10400
TTM_SCR_HLD	8000
TTM_SCR_SLD	21000
TTM_SCR_ALL	85900
TTM_SCR_S	82950
TTM_SCR_SS	85500
TTM_RAT_ACV	10046

