VERSION	0.00.00	1.03.00
FES_MODE	0
BPM_DEF	114.072	114.072	114.072	114.072
MET_DEF	4	4
RESOLUTION	384
CLK_DEF	384
COMPATIBLE_CODE	MA2

BPM	0	0	114.072
MET	0	0	4	4

TTP	1	0	0	C	1	L1
HLD	3	0	0	384
HLD	3	0	7	384
TAP	5	0	0
TAP	5	192	1
TAP	6	0	2
TAP	6	192	3
TAP	7	0	4
TAP	7	192	5
TAP	8	0	6
TAP	8	192	7
HLD	9	0	0	192
HLD	9	0	7	192
BRK	10	0	0
BRK	10	0	7
STR	11	0	6
SI_	11	0	6	96	288	2
XTP	12	192	1
STR	13	0	0
SI_	13	0	0	96	288	4
XTP	14	192	5
STR	15	0	6
SI_	15	0	6	96	288	3
XTP	16	192	2
STR	17	0	1
SI_	17	0	1	96	288	4
XTP	18	192	6
TAP	19	0	7
TAP	19	96	7
TAP	19	192	6
TAP	19	288	6
TAP	20	0	5
TAP	20	96	5
TAP	20	192	4
TAP	20	288	4
TAP	21	0	3
TAP	21	96	3
TAP	21	192	2
TAP	21	288	2
TAP	22	0	1
TAP	22	96	1
XTP	22	192	0
XTP	22	192	7
STR	23	0	0
SI_	23	0	0	96	288	3
STR	23	0	7
SI_	23	0	7	96	288	4
XTP	24	192	3
XTP	24	192	4
STR	25	0	3
SI_	25	0	3	96	288	0
STR	25	0	4
SI_	25	0	4	96	288	7
XTP	26	192	0
XTP	26	192	7
HLD	27	0	0	96
HLD	27	0	1	96
TAP	27	192	0
TAP	27	192	1
HLD	28	0	2	96
HLD	28	0	3	96
TAP	28	192	2
TAP	28	192	3
HLD	29	0	4	96
HLD	29	0	5	96
TAP	29	192	4
TAP	29	192	5
TAP	30	0	6
TAP	30	96	6
TAP	30	192	6
BRK	31	0	0
BRK	31	0	7
BRK	31	192	6
BRK	31	192	7
BRK	32	0	0
BRK	32	0	1
TAP	32	192	7
XTP	32	288	7
TAP	33	0	6
TAP	33	96	6
TAP	33	192	5
TAP	33	288	4
BRK	34	0	3
BRK	34	0	4
HLD	35	0	3	192
HLD	35	0	4	192
HLD	36	0	2	192
HLD	36	0	5	192
HLD	37	0	1	192
HLD	37	0	6	192
HLD	38	0	0	192
HLD	38	0	7	192
TTP	39	120	0	C	1	L1
TTP	39	120	1	B	0	L1
TTP	39	120	2	B	0	L1
TTP	39	120	5	B	0	L1
TTP	39	120	6	B	0	L1

T_REC_TAP	36
T_REC_BRK	10
T_REC_XTP	11
T_REC_HLD	18
T_REC_XHO	0
T_REC_STR	8
T_REC_BST	0
T_REC_XST	0
T_REC_TTP	6
T_REC_THO	0
T_REC_SLD	8
T_REC_ALL	97
T_NUM_TAP	61
T_NUM_BRK	10
T_NUM_HLD	18
T_NUM_SLD	8
T_NUM_ALL	97
T_JUDGE_TAP	71
T_JUDGE_HLD	136
T_JUDGE_SLD	8
T_JUDGE_ALL	215
TTM_EACHPAIRS	22
TTM_SCR_TAP	30500
TTM_SCR_BRK	26000
TTM_SCR_HLD	18000
TTM_SCR_SLD	12000
TTM_SCR_ALL	86500
TTM_SCR_S	82950
TTM_SCR_SS	85500
TTM_RAT_ACV	10116

