VERSION	0.00.00	1.03.00
FES_MODE	0
BPM_DEF	168.000	168.000	168.000	168.000
MET_DEF	4	4
RESOLUTION	384
CLK_DEF	384
COMPATIBLE_CODE	MA2

BPM	0	0	168.000
MET	0	0	4	4

BRK	1	0	3
STR	1	0	4
SCR	1	0	4	96	768	3
STR	3	0	4
SCR	3	0	4	96	576	3
HLD	5	0	5	384
TAP	5	48	4
TAP	5	144	4
TAP	5	240	4
TAP	5	336	4
HLD	6	0	2	384
TAP	6	48	3
TAP	6	144	3
TAP	6	240	3
TAP	6	336	3
HLD	7	0	6	336
TAP	7	48	4
TAP	7	144	4
TAP	7	240	4
TAP	7	336	4
TAP	8	0	4
TAP	8	0	6
TAP	8	48	3
TAP	8	48	5
TAP	8	96	2
TAP	8	96	4
TAP	8	144	1
TAP	8	168	3
TAP	8	192	1
TAP	8	216	3
TAP	8	240	1
TAP	8	288	2
TAP	8	288	4
TAP	8	336	0
TAP	8	336	6
TAP	8	360	1
TAP	8	360	5
TAP	9	0	2
BST	9	0	4
SSL	9	0	4	96	480	0
SSR	9	0	4	96	480	0
BST	11	0	2
SI_	11	0	2	96	480	5
BST	11	0	5
SI_	11	0	5	96	480	2
BST	13	0	1
SI_	13	0	1	96	288	5
SCL	13	0	1	96	480	2
BRK	13	0	5
BST	15	0	2
SLL	15	0	2	96	480	3
BST	15	0	4
SLR	15	0	4	96	480	3
TAP	16	288	2
TAP	16	288	4
HLD	17	0	3	48
HLD	17	0	6	48
TAP	17	96	5
TAP	17	120	4
TAP	17	168	4
TAP	17	192	5
TAP	17	240	5
TAP	17	264	3
TAP	17	312	3
TAP	17	336	4
HLD	18	0	1	48
HLD	18	0	3	48
TAP	18	96	2
TAP	18	120	3
TAP	18	168	3
TAP	18	192	2
TAP	18	240	2
TAP	18	264	4
TAP	18	312	4
TAP	18	336	3
HLD	19	0	4	48
HLD	19	0	6	48
TAP	19	96	5
TAP	19	120	4
TAP	19	168	4
TAP	19	192	5
TAP	19	240	5
TAP	19	264	3
TAP	19	312	3
TAP	19	336	4
HLD	20	0	1	48
HLD	20	0	3	48
TAP	20	96	2
TAP	20	120	3
TAP	20	168	3
HLD	20	192	2	48
TAP	20	240	4
TAP	20	264	4
TAP	20	288	3
TAP	20	336	2
TAP	20	336	5
HLD	21	0	3	48
HLD	21	0	4	48
TAP	21	96	5
TAP	21	120	3
TAP	21	168	3
TAP	21	192	4
TAP	21	240	4
TAP	21	264	2
TAP	21	312	2
TAP	21	336	3
HLD	22	0	1	48
HLD	22	0	3	48
TAP	22	96	2
TAP	22	120	4
TAP	22	168	4
TAP	22	192	3
TAP	22	240	3
TAP	22	264	5
TAP	22	312	5
TAP	22	336	4
HLD	23	0	4	48
HLD	23	0	6	48
TAP	23	96	5
TAP	23	120	3
TAP	23	168	3
TAP	23	192	4
TAP	23	240	4
TAP	23	264	2
TAP	23	312	2
TAP	23	336	3
TAP	24	0	1
TAP	24	0	3
TAP	24	48	2
TAP	24	48	4
TAP	24	96	3
TAP	24	96	5
TAP	24	144	4
TAP	24	144	6
TAP	24	192	3
TAP	24	192	7
TAP	24	240	2
TAP	24	240	6
BRK	24	288	1
BRK	24	288	5
STR	25	0	0
SI_	25	0	0	96	36	6
TAP	25	48	4
TAP	25	96	5
HLD	25	144	5	96
STR	25	192	4
SI_	25	192	4	96	48	7
TAP	25	240	3
TAP	25	288	2
STR	26	0	1
SI_	26	0	1	96	48	5
TAP	26	48	0
HLD	26	96	7	96
STR	26	192	4
SI_	26	192	4	96	48	7
TAP	26	240	3
TAP	26	288	2
STR	27	0	6
SCL	27	0	6	96	48	3
STR	27	48	3
SCR	27	48	3	96	48	6
TAP	27	96	7
TAP	27	144	0
TAP	27	192	1
TAP	27	240	2
TAP	27	240	7
TAP	27	288	3
TAP	27	288	6
HLD	28	0	5	96
BRK	28	48	7
HLD	28	96	4	96
BRK	28	144	7
HLD	28	192	3	96
BRK	28	240	0
HLD	28	288	2	96
BRK	28	336	0
STR	29	0	7
SI_	29	0	7	96	36	1
TAP	29	48	3
TAP	29	96	2
HLD	29	144	2	96
STR	29	192	3
SI_	29	192	3	96	48	0
TAP	29	240	4
TAP	29	288	5
STR	30	0	6
SI_	30	0	6	96	48	2
TAP	30	48	7
HLD	30	96	0	96
STR	30	192	3
SI_	30	192	3	96	48	0
TAP	30	240	4
STR	30	288	5
SCL	30	288	5	96	48	2
TAP	31	0	0
STR	31	48	0
SCL	31	48	0	96	48	5
TAP	31	144	3
STR	31	192	3
SCL	31	192	3	96	48	0
TAP	31	288	6
STR	31	336	6
SCL	31	336	6	96	48	3
TAP	32	48	0
STR	32	96	0
SI_	32	96	0	96	48	4
TAP	32	192	7
TAP	32	240	7
TAP	32	336	2
TAP	32	336	6
STR	33	0	7
SI_	33	0	7	96	36	1
TAP	33	48	3
TAP	33	96	2
HLD	33	144	2	96
STR	33	192	3
SI_	33	192	3	96	48	0
TAP	33	240	4
STR	33	288	5
SI_	33	288	5	96	48	3
STR	34	0	5
SI_	34	0	5	96	48	2
TAP	34	48	7
STR	34	96	5
SLR	34	96	5	96	96	3
TAP	34	144	1
TAP	34	192	5
TAP	34	240	0
TAP	34	288	0
STR	35	0	1
SCR	35	0	1	96	48	4
STR	35	48	4
SCL	35	48	4	96	48	1
TAP	35	96	0
TAP	35	144	7
TAP	35	192	6
TAP	35	240	0
TAP	35	240	5
TAP	35	288	1
TAP	35	288	4
HLD	36	0	2	96
BRK	36	48	0
HLD	36	96	3	96
BRK	36	144	0
HLD	36	192	4	96
BRK	36	240	7
HLD	36	288	5	96
BRK	36	336	7
STR	37	0	0
SI_	37	0	0	96	36	6
TAP	37	48	4
TAP	37	96	5
HLD	37	144	5	96
STR	37	192	4
SI_	37	192	4	96	48	7
TAP	37	240	3
STR	37	288	2
SI_	37	288	2	96	48	4
STR	38	0	2
SI_	38	0	2	96	48	5
TAP	38	48	0
STR	38	96	2
SLL	38	96	2	96	96	4
TAP	38	144	6
TAP	38	192	2
TAP	38	240	7
TAP	38	288	7
TAP	39	0	4
TAP	39	0	6
TAP	39	48	3
TAP	39	48	7
TAP	39	96	6
HLD	39	120	4	48
TAP	39	168	5
HLD	39	192	3	48
TAP	39	240	4
HLD	39	264	2	48
TAP	39	312	3
TAP	39	336	1
TAP	40	0	1
TAP	40	0	3
TAP	40	48	0
TAP	40	48	4
TAP	40	96	1
TAP	40	120	3
TAP	40	144	2
TAP	40	168	6
TAP	40	192	4
TAP	40	216	5
TAP	40	240	0
TAP	40	264	3
TAP	40	288	2
TAP	40	312	7
TAP	40	336	4
TAP	40	360	5
BST	41	0	0
SCR	41	0	0	96	1248	7
TTP	41	168	0	C	1	M1
TTP	43	168	0	C	1	M1
TAP	45	0	4
HLD	45	0	5	96
TTP	45	96	5	B	0	M1
TTP	45	96	6	B	0	M1
HLD	45	192	2	96
TAP	45	192	3
TTP	45	288	1	B	0	M1
TTP	45	288	2	B	0	M1
TAP	46	0	4
HLD	46	0	6	96
TTP	46	96	0	B	0	M1
TTP	46	96	0	E	0	M1
HLD	46	192	1	96
TAP	46	192	3
TTP	46	288	0	E	0	M1
TTP	46	288	7	B	0	M1
HLD	47	0	4	72
TAP	47	0	6
TAP	47	72	5
TAP	47	96	4
TAP	47	144	3
TAP	47	144	6
TAP	47	192	0
TAP	47	192	7
TAP	47	240	2
TAP	47	264	3
TAP	47	288	1
TAP	47	312	3
TAP	47	336	2
TAP	47	360	3
HLD	48	0	0	72
TAP	48	72	3
TAP	48	96	1
TAP	48	144	2
TAP	48	144	4
TAP	48	192	1
TAP	48	192	5
TAP	48	240	0
TAP	48	264	7
STR	48	288	1
SI_	48	288	1	96	48	5
TAP	48	312	6
TAP	48	336	0
TAP	48	360	7
BRK	49	0	1
TAP	49	288	4
TAP	49	336	4
HLD	50	0	5	336
TAP	50	288	3
TAP	50	336	3
HLD	51	0	2	336
TAP	51	288	4
TAP	51	336	4
HLD	52	0	5	288
TAP	52	288	3
TAP	52	336	3
XTP	53	0	2
XTP	53	0	4
TAP	53	48	1
TAP	53	96	2
TAP	53	96	3
TAP	53	144	4
STR	53	192	2
SI_	53	192	2	96	48	0
TAP	53	192	3
XTP	54	0	3
XTP	54	0	5
TAP	54	48	6
TAP	54	96	4
TAP	54	96	5
TAP	54	144	3
TAP	54	192	4
STR	54	192	5
SI_	54	192	5	96	48	7
XTP	55	0	1
TAP	55	48	1
TAP	55	96	0
TAP	55	96	4
XTP	55	192	6
TAP	55	240	6
TAP	55	288	3
TAP	55	288	7
XTP	56	0	1
XTP	56	0	5
TAP	56	48	0
XTP	56	96	2
XTP	56	96	6
TAP	56	144	7
XST	56	192	0
SF_	56	192	0	96	48	4
TAP	56	192	6
BRK	56	288	0
TAP	57	0	7
STR	57	48	6
SI_	57	48	6	96	48	1
TAP	57	96	3
STR	57	144	2
SI_	57	144	2	96	48	5
TAP	57	240	0
TAP	57	336	7
TAP	58	0	7
STR	58	48	6
SI_	58	48	6	96	48	1
TAP	58	96	3
STR	58	144	2
SI_	58	144	2	96	48	5
TAP	58	240	0
TAP	58	336	7
TAP	59	0	7
TAP	59	48	7
TTP	59	96	5	B	0	M1
TTP	59	96	5	E	0	M1
TTP	59	96	6	B	0	M1
TTP	59	96	7	E	0	M1
TAP	59	192	0
TAP	59	192	3
TAP	59	240	0
TAP	59	240	3
TTP	59	288	1	B	0	M1
TTP	59	288	1	E	0	M1
TTP	59	288	2	B	0	M1
TTP	59	288	3	E	0	M1
TAP	60	0	4
TAP	60	0	6
TTP	60	96	0	C	0	M1
TTP	60	96	0	E	0	M1
TTP	60	96	4	E	0	M1
TAP	60	192	1
TAP	60	192	3
TTP	60	288	0	C	0	M1
TTP	60	288	0	E	0	M1
TTP	60	288	4	E	0	M1
TAP	61	0	6
TAP	61	48	6
STR	61	96	5
SLL	61	96	5	96	96	1
TAP	61	144	5
STR	61	192	1
SLL	61	192	1	96	96	5
TAP	61	288	5
TAP	62	0	1
TAP	62	48	1
STR	62	96	2
SLR	62	96	2	96	96	6
TAP	62	144	2
STR	62	192	6
SLR	62	192	6	96	96	2
TAP	62	288	2
STR	63	0	4
SCL	63	0	4	96	384	5
TAP	63	96	0
HLD	63	144	0	96
TAP	63	288	2
HLD	63	336	2	144
TAP	64	144	3
TAP	64	192	3
TAP	64	288	2
TAP	64	288	5
TAP	65	0	0
STR	65	48	1
SI_	65	48	1	96	48	6
TAP	65	96	4
STR	65	144	5
SI_	65	144	5	96	48	2
TAP	65	240	7
TAP	65	336	0
TAP	66	0	0
STR	66	48	1
SI_	66	48	1	96	48	6
TAP	66	96	4
STR	66	144	5
SI_	66	144	5	96	48	2
TAP	66	240	7
TAP	66	336	0
TAP	67	0	0
TAP	67	48	0
TTP	67	96	1	B	0	M1
TTP	67	96	1	E	0	M1
TTP	67	96	2	B	0	M1
TTP	67	96	3	E	0	M1
TAP	67	192	4
TAP	67	192	7
TAP	67	240	4
TAP	67	240	7
TTP	67	288	5	B	0	M1
TTP	67	288	5	E	0	M1
TTP	67	288	6	B	0	M1
TTP	67	288	7	E	0	M1
TAP	68	0	1
TAP	68	0	3
TTP	68	96	0	C	0	M1
TTP	68	96	0	E	0	M1
TTP	68	96	4	E	0	M1
TAP	68	192	4
TAP	68	192	6
TTP	68	288	0	C	0	M1
TTP	68	288	0	E	0	M1
TTP	68	288	4	E	0	M1
TAP	69	0	1
TAP	69	48	1
STR	69	96	2
SLR	69	96	2	96	96	6
TAP	69	144	2
STR	69	192	6
SLR	69	192	6	96	96	2
TAP	69	288	2
TAP	70	0	6
TAP	70	48	6
STR	70	96	5
SLL	70	96	5	96	96	1
TAP	70	144	5
STR	70	192	1
SLL	70	192	1	96	96	5
TAP	70	288	5
STR	71	0	3
SCR	71	0	3	96	384	2
TAP	71	96	7
HLD	71	144	7	96
TAP	71	288	5
HLD	71	336	5	144
TTP	72	144	0	C	1	M1
TAP	72	288	0
TAP	72	288	7
TTP	73	0	5	E	0	M1
TTP	73	96	5	B	0	M1
TTP	73	192	6	B	0	M1
TTP	73	288	7	E	0	M1
TTP	74	0	5	E	0	M1
TTP	74	96	5	B	0	M1
TTP	74	192	6	B	0	M1
TTP	74	288	7	E	0	M1
TTP	75	0	3	E	0	M1
TTP	75	48	3	B	0	M1
TTP	75	96	2	B	0	M1
TTP	75	144	0	C	0	M1
TTP	75	192	1	B	0	M1
TTP	75	288	1	E	0	M1
TTP	76	0	3	E	0	M1
TTP	76	48	3	B	0	M1
TTP	76	96	2	B	0	M1
TTP	76	144	0	C	0	M1
TTP	76	192	1	B	0	M1
TTP	76	288	1	E	0	M1
TTP	77	0	3	E	0	M1
HLD	77	0	7	192
TTP	77	96	2	B	0	M1
TTP	77	192	1	B	0	M1
TTP	77	288	1	E	0	M1
TTP	78	0	3	E	0	M1
HLD	78	0	7	192
TTP	78	96	2	B	0	M1
TTP	78	192	1	B	0	M1
TTP	78	288	1	E	0	M1
HLD	79	0	0	192
TTP	79	0	5	E	0	M1
TTP	79	48	4	B	0	M1
TTP	79	96	5	B	0	M1
TTP	79	144	0	C	0	M1
TTP	79	192	6	B	0	M1
TTP	79	288	7	E	0	M1
TAP	80	0	5
TAP	80	24	4
TAP	80	48	5
TAP	80	96	2
TAP	80	120	3
TAP	80	144	2
XTP	80	192	6
XTP	80	204	5
XTP	80	216	4
XTP	80	228	3
XTP	80	240	2
XTP	80	252	1
XTP	80	264	0
XTP	80	276	7
BRK	80	288	2
XTP	80	288	6
STR	81	0	0
SI_	81	0	0	96	48	3
TAP	81	0	1
TAP	81	48	7
TAP	81	96	0
TAP	81	96	6
STR	81	144	4
SI_	81	144	4	96	48	1
TAP	81	192	5
TAP	81	240	6
XST	81	288	7
SI_	81	288	7	96	48	3
XTP	81	312	6
XTP	81	336	5
XTP	81	360	4
XTP	82	0	3
TAP	82	0	7
TAP	82	48	6
TAP	82	96	6
TAP	82	144	0
TAP	82	144	5
TAP	82	192	2
TAP	82	216	3
TAP	82	240	1
TAP	82	264	4
BRK	82	288	0
TAP	83	0	7
STR	83	48	6
SCR	83	48	6	96	48	1
TAP	83	96	5
TAP	83	144	4
STR	83	192	3
SCR	83	192	3	96	48	6
TAP	83	240	2
STR	83	288	1
SUR	83	288	1	96	144	4
TAP	83	336	0
TAP	84	0	7
TAP	84	192	4
TAP	84	192	5
TAP	84	240	1
TAP	84	240	7
TAP	84	288	2
TAP	84	288	6
TAP	85	0	6
STR	85	0	7
SI_	85	0	7	96	48	4
TAP	85	48	0
TAP	85	96	1
TAP	85	96	7
STR	85	144	3
SI_	85	144	3	96	48	6
TAP	85	192	2
TAP	85	240	1
TAP	85	240	3
XST	85	288	0
SI_	85	288	0	96	48	4
XTP	85	312	1
XTP	85	336	2
XTP	85	360	3
TAP	86	0	0
XTP	86	0	4
TAP	86	48	1
TAP	86	96	1
TAP	86	144	2
TAP	86	144	7
TAP	86	192	5
TAP	86	216	4
TAP	86	240	6
TAP	86	264	3
BRK	86	288	7
BRK	86	312	4
BRK	86	336	7
BRK	86	360	4
TAP	87	0	6
STR	87	48	7
SCL	87	48	7	96	48	4
TAP	87	96	0
TAP	87	144	1
STR	87	192	2
SCL	87	192	2	96	48	7
TAP	87	240	3
STR	87	288	4
SUL	87	288	4	96	144	1
TAP	87	336	5
TAP	88	0	6
TAP	88	192	2
TAP	88	192	3
TAP	88	240	0
TAP	88	240	6
TAP	88	288	1
TAP	88	288	5
STR	89	0	0
SI_	89	0	0	96	48	3
TAP	89	0	1
TAP	89	48	7
TAP	89	96	0
TAP	89	96	6
STR	89	144	4
SI_	89	144	4	96	48	1
TAP	89	192	5
TAP	89	240	4
TAP	89	240	6
XST	89	288	0
SI_	89	288	0	96	48	4
XTP	89	312	7
XTP	89	336	6
XTP	89	360	5
XTP	90	0	4
XST	90	48	0
SCR	90	48	0	96	48	3
XTP	90	72	7
XTP	90	96	6
XTP	90	120	5
XTP	90	144	4
XST	90	192	0
SI_	90	192	0	96	48	4
XTP	90	216	7
XTP	90	240	6
XTP	90	264	5
XTP	90	288	4
TAP	91	0	6
TAP	91	24	3
TAP	91	48	6
TAP	91	72	3
TAP	91	96	5
TAP	91	120	2
TAP	91	144	5
TAP	91	168	2
TAP	91	192	4
TAP	91	216	1
TAP	91	240	4
TAP	91	264	1
TAP	91	288	3
TAP	91	312	0
TAP	91	336	3
TAP	91	360	0
TAP	92	0	5
TAP	92	24	1
TAP	92	48	5
TAP	92	72	1
TAP	92	96	6
TAP	92	120	2
TAP	92	144	6
TAP	92	168	2
TAP	92	192	7
TAP	92	216	4
TAP	92	240	5
TAP	92	264	3
BRK	92	288	7
TAP	93	0	6
STR	93	0	7
SI_	93	0	7	96	48	4
TAP	93	48	0
TAP	93	96	1
TAP	93	96	7
STR	93	144	3
SI_	93	144	3	96	48	6
TAP	93	192	2
TAP	93	240	1
TAP	93	240	3
XST	93	288	7
SI_	93	288	7	96	48	3
XTP	93	312	0
XTP	93	336	1
XTP	93	360	2
XTP	94	0	3
XST	94	48	7
SCL	94	48	7	96	48	4
XTP	94	72	0
XTP	94	96	1
XTP	94	120	2
XTP	94	144	3
XST	94	192	7
SI_	94	192	7	96	48	3
XTP	94	216	0
XTP	94	240	1
XTP	94	264	2
XTP	94	288	3
TAP	95	0	1
TAP	95	24	4
TAP	95	48	1
TAP	95	72	4
TAP	95	96	2
TAP	95	120	5
TAP	95	144	2
TAP	95	168	5
TAP	95	192	3
TAP	95	216	6
TAP	95	240	3
TAP	95	264	6
TAP	95	288	4
TAP	95	312	7
TAP	95	336	4
TAP	95	360	7
TAP	96	0	2
TAP	96	24	6
TAP	96	48	2
TAP	96	72	6
TAP	96	96	1
TAP	96	120	5
TAP	96	144	1
TAP	96	168	5
TAP	96	192	0
TAP	96	216	3
TAP	96	240	2
TAP	96	264	4
BRK	96	288	0
XTP	97	0	0
XTP	97	0	7
TAP	97	48	5
TAP	97	72	4
TAP	97	96	3
TAP	97	96	6
TAP	97	144	2
TAP	97	168	3
TAP	97	192	1
TAP	97	192	4
TAP	97	240	6
TAP	97	264	7
TAP	97	288	6
TAP	97	312	7
TAP	97	336	6
TAP	98	0	0
TAP	98	0	1
XTP	98	12	2
XTP	98	24	3
XTP	98	36	4
TAP	98	96	6
TAP	98	96	7
XTP	98	108	5
XTP	98	120	4
XTP	98	132	3
TAP	98	192	1
TAP	98	216	0
TAP	98	240	1
TAP	98	264	0
TAP	98	288	1
TAP	98	300	2
TAP	98	312	3
TAP	98	324	4
TAP	98	336	5
TAP	98	348	6
TAP	98	360	7
TAP	98	372	0
BST	99	0	1
SXR	99	0	1	96	624	4
BST	99	0	5
SXR	99	0	5	96	624	0

T_REC_TAP	453
T_REC_BRK	22
T_REC_XTP	59
T_REC_HLD	51
T_REC_XHO	0
T_REC_STR	64
T_REC_BST	9
T_REC_XST	9
T_REC_TTP	73
T_REC_THO	0
T_REC_SLD	84
T_REC_ALL	824
T_NUM_TAP	658
T_NUM_BRK	31
T_NUM_HLD	51
T_NUM_SLD	84
T_NUM_ALL	824
T_JUDGE_TAP	689
T_JUDGE_HLD	123
T_JUDGE_SLD	84
T_JUDGE_ALL	896
TTM_EACHPAIRS	94
TTM_SCR_TAP	329000
TTM_SCR_BRK	80600
TTM_SCR_HLD	51000
TTM_SCR_SLD	126000
TTM_SCR_ALL	586600
TTM_SCR_S	566000
TTM_SCR_SS	583500
TTM_RAT_ACV	10053

