VERSION	0.00.00	1.03.00
FES_MODE	0
BPM_DEF	168.000	168.000	168.000	168.000
MET_DEF	4	4
RESOLUTION	384
CLK_DEF	384
COMPATIBLE_CODE	MA2

BPM	0	0	168.000
MET	0	0	4	4

BST	1	0	0
TTP	1	0	0	C	1	M1
SCR	1	0	0	96	1344	7
TTP	1	0	3	B	0	M1
TTP	1	0	4	B	0	M1
HLD	5	0	4	72
HLD	5	144	5	72
TAP	5	288	4
TAP	5	288	6
HLD	6	0	3	72
HLD	6	144	2	72
TAP	6	288	1
TAP	6	288	3
HLD	7	0	4	72
HLD	7	144	3	72
HLD	7	144	5	72
TAP	7	288	4
TAP	7	288	6
HLD	8	0	3	72
HLD	8	144	2	72
HLD	8	144	4	72
TAP	8	288	1
TAP	8	288	3
XTP	9	0	4
XST	9	0	6
SUL	9	0	6	96	240	4
HLD	10	0	2	72
HLD	10	0	3	72
HLD	10	144	4	72
HLD	10	144	5	72
TAP	10	288	2
TAP	10	336	2
XST	11	0	1
SUR	11	0	1	96	240	3
XTP	11	0	3
HLD	12	0	4	72
HLD	12	0	5	72
HLD	12	144	2	72
HLD	12	144	3	72
TAP	12	288	5
TAP	12	336	4
XTP	13	0	3
XST	13	0	6
SUL	13	0	6	96	240	3
HLD	14	0	2	72
HLD	14	0	4	72
HLD	14	144	4	72
HLD	14	144	6	72
TAP	14	288	2
TAP	14	336	3
XST	15	0	1
SUR	15	0	1	96	240	4
XTP	15	0	4
HLD	16	0	3	72
HLD	16	0	5	72
HLD	16	144	1	72
HLD	16	144	3	72
TAP	16	288	5
TAP	16	336	4
XTP	17	0	3
XTP	17	0	6
XTP	17	48	3
XTP	17	48	6
TAP	17	120	2
TAP	17	192	1
TAP	17	264	0
STR	17	336	7
SCL	17	336	7	96	48	4
TAP	18	48	3
HLD	18	120	2	72
TAP	18	192	1
TAP	18	264	0
STR	18	336	7
SCL	18	336	7	96	48	4
TAP	19	48	3
HLD	19	120	2	72
HLD	19	192	1	72
TAP	19	264	0
STR	19	336	7
SCL	19	336	7	96	48	4
TAP	20	48	3
HLD	20	120	2	72
HLD	20	192	1	72
HLD	20	264	0	72
TAP	20	336	7
XTP	21	0	1
XTP	21	0	6
XTP	21	48	1
XTP	21	48	6
TAP	21	120	5
TAP	21	192	6
TAP	21	264	7
STR	21	336	0
SCR	21	336	0	96	48	3
TAP	22	48	4
HLD	22	120	5	72
TAP	22	192	6
TAP	22	264	7
STR	22	336	0
SCR	22	336	0	96	48	3
TAP	23	48	4
HLD	23	120	5	72
HLD	23	192	6	72
TAP	23	264	7
STR	23	336	0
SCR	23	336	0	96	48	3
TAP	24	48	4
HLD	24	120	5	72
HLD	24	192	6	72
HLD	24	264	7	72
TAP	24	336	0
XTP	25	0	0
XTP	25	0	7
TAP	25	48	6
TAP	25	96	0
TAP	25	96	7
TAP	25	144	1
TAP	25	192	0
TAP	25	192	7
TAP	25	240	6
TAP	25	288	3
TAP	25	288	5
TAP	26	0	2
HLD	26	0	6	96
TAP	26	96	4
TAP	26	144	5
TAP	26	192	3
TAP	26	192	6
TAP	26	240	5
TAP	26	288	0
TAP	26	288	4
TTP	27	0	2	E	0	M1
TTP	27	48	3	E	0	M1
TTP	27	96	4	E	0	M1
TTP	27	144	5	E	0	M1
TTP	27	192	1	E	0	M1
TTP	27	240	2	E	0	M1
TTP	27	288	3	E	0	M1
TTP	28	0	6	E	0	M1
TTP	28	48	5	E	0	M1
TTP	28	96	4	E	0	M1
TTP	28	144	3	E	0	M1
TTP	28	192	7	E	0	M1
TTP	28	240	6	E	0	M1
TTP	28	288	5	E	0	M1
TAP	29	0	2
TAP	29	0	3
TAP	29	48	1
TAP	29	96	2
TAP	29	96	3
TAP	29	144	4
TAP	29	192	2
TAP	29	192	3
TAP	29	240	1
TAP	29	288	0
TAP	29	288	7
HLD	30	0	1	96
TAP	30	0	6
TAP	30	96	3
TAP	30	144	2
TAP	30	192	1
TAP	30	192	4
TAP	30	240	2
TAP	30	288	3
TAP	30	288	7
HLD	31	0	4	96
HLD	31	0	5	96
HLD	31	144	2	96
HLD	31	144	3	96
HLD	31	288	4	96
HLD	31	288	6	96
HLD	32	48	1	96
HLD	32	48	3	96
HLD	32	192	0	96
HLD	32	192	7	96
XTP	32	336	0
XTP	32	336	7
XTP	33	0	0
XTP	33	0	7
TAP	33	48	1
TAP	33	96	0
TAP	33	96	7
TAP	33	144	6
TAP	33	192	0
TAP	33	192	7
TAP	33	240	1
TAP	33	288	2
TAP	33	288	6
TAP	34	0	1
TAP	34	0	5
TAP	34	48	0
TAP	34	96	1
TAP	34	96	5
TAP	34	144	0
TAP	34	192	1
TAP	34	192	5
TAP	34	240	0
TAP	34	288	6
TAP	34	288	7
TTP	35	0	6	E	0	M1
TTP	35	48	5	E	0	M1
TTP	35	96	4	E	0	M1
TTP	35	144	3	E	0	M1
TTP	35	192	7	E	0	M1
TTP	35	240	6	E	0	M1
TTP	35	288	5	E	0	M1
TTP	36	0	2	E	0	M1
TTP	36	48	3	E	0	M1
TTP	36	96	4	E	0	M1
TTP	36	144	5	E	0	M1
TTP	36	192	1	E	0	M1
TTP	36	240	2	E	0	M1
TTP	36	288	3	E	0	M1
TAP	37	0	4
TAP	37	0	5
TAP	37	48	6
TAP	37	96	4
TAP	37	96	5
TAP	37	144	3
TAP	37	192	4
TAP	37	192	5
TAP	37	240	6
TAP	37	288	0
TAP	37	288	7
TAP	38	0	1
HLD	38	0	6	96
TAP	38	96	4
TAP	38	144	5
TAP	38	192	3
TAP	38	192	6
TAP	38	240	5
STR	38	288	0
SXL	38	288	0	96	288	3
STR	38	288	4
SXL	38	288	4	96	288	7
TAP	40	0	1
XTP	40	0	5
XTP	40	48	1
TAP	40	48	5
TAP	40	144	3
XTP	40	144	7
XTP	40	240	0
TAP	40	240	4
XTP	40	336	2
XTP	40	336	6
BRK	41	0	2
BRK	41	0	6
THO	41	144	0	240	C	1	M1
TTP	41	144	1	B	0	M1
TTP	41	144	2	B	0	M1
TTP	41	144	5	B	0	M1
TTP	41	144	6	B	0	M1
TTP	43	144	0	B	0	M1
THO	43	144	0	240	C	1	M1
TTP	43	144	3	B	0	M1
TTP	43	144	4	B	0	M1
TTP	43	144	7	B	0	M1
STR	45	0	2
SCR	45	0	2	96	48	5
TAP	45	96	7
STR	45	192	6
SI_	45	192	6	96	48	3
TAP	45	288	0
STR	46	0	2
SI_	46	0	2	96	48	7
TAP	46	96	4
STR	46	192	6
SCR	46	192	6	96	48	1
TAP	46	288	3
HLD	47	0	3	72
HLD	47	72	2	72
TAP	47	144	1
TAP	47	240	0
TAP	47	240	7
TAP	47	288	1
TAP	47	288	6
TAP	47	336	2
TAP	47	336	5
TAP	48	0	3
HLD	48	0	4	72
HLD	48	72	5	72
TAP	48	144	6
TAP	48	240	0
TAP	48	240	7
TAP	48	288	1
TAP	48	288	6
TAP	48	336	2
TAP	48	336	5
HLD	49	0	3	72
HLD	49	0	4	72
HLD	49	144	2	72
HLD	49	144	3	72
TAP	49	288	1
TAP	49	288	4
HLD	50	0	3	72
HLD	50	0	4	72
HLD	50	144	4	72
HLD	50	144	5	72
TAP	50	288	3
TAP	50	288	6
HLD	51	0	2	72
HLD	51	0	4	72
HLD	51	144	1	72
HLD	51	144	3	72
TAP	51	288	0
TAP	51	288	4
HLD	52	0	3	72
HLD	52	0	5	72
HLD	52	144	4	72
HLD	52	144	6	72
TAP	52	288	3
TAP	52	288	7
TAP	53	0	0
XST	53	0	1
SLR	53	0	1	96	144	5
TAP	53	96	7
TAP	53	192	7
TAP	53	288	7
XST	54	0	6
SLL	54	0	6	96	144	2
TAP	54	0	7
TAP	54	96	0
TAP	54	192	0
TAP	54	288	0
TAP	55	0	0
XST	55	0	1
SI_	55	0	1	96	48	5
XST	55	192	6
SI_	55	192	6	96	48	2
TAP	55	192	7
XST	56	0	1
SI_	56	0	1	96	48	3
XST	56	96	7
SI_	56	96	7	96	48	5
XST	56	192	0
SI_	56	192	0	96	48	4
XTP	56	288	0
HLD	57	0	3	240
TAP	57	0	7
TAP	57	48	6
TAP	57	96	5
STR	57	144	4
SCR	57	144	4	96	48	7
HLD	58	0	3	240
TAP	58	0	7
TAP	58	48	6
TAP	58	96	5
STR	58	144	4
SCR	58	144	4	96	48	7
TAP	59	0	7
TAP	59	48	6
TAP	59	96	4
HLD	59	96	5	96
TAP	59	192	7
TAP	59	240	6
HLD	59	288	4	96
TAP	59	288	5
STR	60	0	7
SI_	60	0	7	96	48	5
TAP	60	96	4
STR	60	192	3
SI_	60	192	3	96	48	7
TAP	60	288	5
TAP	61	0	4
TAP	61	48	4
TAP	61	96	2
TAP	61	144	3
STR	61	192	1
SI_	61	192	1	96	48	6
TAP	61	288	5
TAP	62	0	4
TAP	62	48	4
TAP	62	96	2
TAP	62	144	3
STR	62	192	1
SI_	62	192	1	96	48	6
TAP	62	288	5
TAP	63	0	4
TAP	63	48	4
TAP	63	96	3
HLD	63	96	5	96
TAP	63	192	4
TAP	63	240	4
HLD	63	288	3	96
TAP	63	288	5
TAP	64	0	4
TAP	64	48	5
TAP	64	96	3
HLD	64	96	6	96
TAP	64	192	4
TAP	64	240	3
TAP	64	288	2
TAP	64	288	5
TAP	65	0	0
HLD	65	0	4	240
TAP	65	48	1
TAP	65	96	2
STR	65	144	3
SCL	65	144	3	96	48	0
TAP	66	0	0
HLD	66	0	4	240
TAP	66	48	1
TAP	66	96	2
STR	66	144	3
SCL	66	144	3	96	48	0
TAP	67	0	0
TAP	67	48	1
HLD	67	96	2	96
TAP	67	96	3
TAP	67	192	0
TAP	67	240	1
TAP	67	288	2
HLD	67	288	3	96
STR	68	0	0
SI_	68	0	0	96	48	2
TAP	68	96	3
STR	68	192	4
SI_	68	192	4	96	48	0
TAP	68	288	2
TAP	69	0	3
TAP	69	48	3
TAP	69	96	5
TAP	69	144	4
STR	69	192	6
SI_	69	192	6	96	48	1
TAP	69	288	2
TAP	70	0	3
TAP	70	48	3
TAP	70	96	5
TAP	70	144	4
STR	70	192	6
SI_	70	192	6	96	48	1
TAP	70	288	2
TAP	71	0	3
TAP	71	48	3
HLD	71	96	2	96
TAP	71	96	4
TAP	71	192	3
TAP	71	240	3
TAP	71	288	2
HLD	71	288	4	96
TAP	72	0	3
TAP	72	48	2
HLD	72	96	1	96
TAP	72	96	4
TAP	72	192	3
TAP	72	240	4
TAP	72	288	2
TAP	72	288	5
TAP	73	0	0
STR	73	0	4
SCR	73	0	4	96	576	7
TTP	73	96	0	E	0	M1
TTP	73	192	1	E	0	M1
TTP	73	288	2	E	0	M1
TTP	74	0	3	E	0	M1
TTP	74	96	4	E	0	M1
TTP	74	192	5	E	0	M1
TTP	74	288	6	E	0	M1
TAP	75	0	0
TAP	75	48	0
TAP	75	96	7
TAP	75	144	7
TAP	75	192	0
TAP	75	240	1
TAP	75	288	2
TAP	75	288	3
TAP	76	0	7
TAP	76	48	7
TAP	76	96	0
TAP	76	144	0
TAP	76	192	7
TAP	76	240	6
TAP	76	288	4
TAP	76	288	5
STR	77	0	3
SCL	77	0	3	96	576	0
TAP	77	0	7
TTP	77	96	0	E	0	M1
TTP	77	192	7	E	0	M1
TTP	77	288	6	E	0	M1
TTP	78	0	5	E	0	M1
TTP	78	96	4	E	0	M1
TTP	78	192	3	E	0	M1
TTP	78	288	2	E	0	M1
TAP	79	0	7
TAP	79	48	7
TAP	79	96	0
TAP	79	144	0
TAP	79	192	7
TAP	79	240	6
TAP	79	288	4
TAP	79	288	5
TAP	80	0	0
TAP	80	48	0
TAP	80	96	7
TAP	80	144	7
TAP	80	192	0
TAP	80	240	1
TAP	80	288	2
TAP	80	288	3
BST	81	0	1
SCR	81	0	1	96	48	4
TAP	81	48	1
XTP	81	96	0
STR	81	144	6
SI_	81	144	6	96	48	3
TAP	81	192	6
XTP	81	240	7
STR	81	288	1
SUR	81	288	1	96	48	5
TAP	81	336	1
XTP	82	0	0
STR	82	48	6
SI_	82	48	6	96	48	3
TAP	82	96	6
XTP	82	144	7
STR	82	192	1
SI_	82	192	1	96	48	5
TAP	82	240	1
XTP	82	288	0
XTP	83	0	4
TAP	83	0	6
HLD	83	48	4	48
XHO	83	48	6	48
TAP	83	144	1
XTP	83	144	3
XHO	83	192	1	48
HLD	83	192	3	48
XTP	83	288	2
TAP	83	288	6
HLD	83	336	2	48
XHO	83	336	6	48
TAP	84	48	1
XTP	84	48	4
XHO	84	96	1	48
HLD	84	96	4	48
XTP	84	192	3
TAP	84	192	7
TAP	84	240	3
XTP	84	240	7
TAP	84	288	0
XTP	84	288	4
BST	85	0	6
SCL	85	0	6	96	48	3
TAP	85	48	6
XTP	85	96	7
STR	85	144	1
SI_	85	144	1	96	48	4
TAP	85	192	1
XTP	85	240	0
STR	85	288	6
SUL	85	288	6	96	48	2
TAP	85	336	6
XTP	86	0	7
STR	86	48	1
SI_	86	48	1	96	48	4
TAP	86	96	1
XTP	86	144	0
STR	86	192	6
SI_	86	192	6	96	48	2
TAP	86	240	6
XTP	86	288	7
TAP	87	0	1
XTP	87	0	3
XHO	87	48	1	48
HLD	87	48	3	48
XTP	87	144	4
TAP	87	144	6
HLD	87	192	4	48
XHO	87	192	6	48
TAP	87	288	1
XTP	87	288	5
XHO	87	336	1	48
HLD	87	336	5	48
XTP	88	48	3
TAP	88	48	6
HLD	88	96	3	48
XHO	88	96	6	48
TAP	88	192	0
XTP	88	192	4
XTP	88	240	0
TAP	88	240	4
XTP	88	288	3
TAP	88	288	7
BST	89	0	1
SCR	89	0	1	96	48	4
TAP	89	48	1
XTP	89	96	0
STR	89	144	6
SI_	89	144	6	96	48	3
TAP	89	192	6
XTP	89	240	7
STR	89	288	1
SUR	89	288	1	96	48	5
TAP	89	336	1
XTP	90	0	0
STR	90	48	7
SI_	90	48	7	96	48	4
TAP	90	96	7
XTP	90	144	0
STR	90	192	1
SI_	90	192	1	96	48	5
TAP	90	240	1
XTP	90	288	0
TAP	91	0	4
TAP	91	0	6
TAP	91	48	5
TAP	91	96	1
TAP	91	96	3
TAP	91	144	2
TAP	91	192	3
TAP	91	192	4
TAP	91	240	3
TAP	91	240	4
XTP	91	288	1
XTP	91	288	6
TAP	92	0	4
TAP	92	0	5
TAP	92	48	6
TAP	92	96	0
TAP	92	96	7
TAP	92	144	1
TAP	92	192	2
TAP	92	192	3
TAP	92	240	2
TAP	92	240	3
XTP	92	288	0
XTP	92	288	5
BST	93	0	6
SCL	93	0	6	96	48	3
TAP	93	48	6
XTP	93	96	7
STR	93	144	1
SI_	93	144	1	96	48	4
TAP	93	192	1
XTP	93	240	0
STR	93	288	6
SUL	93	288	6	96	48	2
TAP	93	336	6
XTP	94	0	7
STR	94	48	0
SI_	94	48	0	96	48	3
TAP	94	96	0
XTP	94	144	7
STR	94	192	6
SI_	94	192	6	96	48	2
TAP	94	240	6
XTP	94	288	7
TAP	95	0	1
TAP	95	0	3
TAP	95	48	2
TAP	95	96	4
TAP	95	96	6
TAP	95	144	5
TAP	95	192	3
TAP	95	192	4
TAP	95	240	3
TAP	95	240	4
XTP	95	288	1
XTP	95	288	6
TAP	96	0	2
TAP	96	0	3
TAP	96	48	1
TAP	96	96	0
TAP	96	96	7
TAP	96	144	6
TAP	96	192	4
TAP	96	192	5
TAP	96	240	4
TAP	96	240	5
XTP	96	288	2
XTP	96	288	7
STR	97	0	0
SCR	97	0	0	96	48	3
TAP	97	48	0
STR	97	96	7
SCL	97	96	7	96	48	4
TAP	97	144	7
STR	97	192	2
SI_	97	192	2	96	48	7
TAP	97	240	2
STR	97	288	6
SI_	97	288	6	96	48	3
TAP	97	336	6
STR	98	0	1
SI_	98	0	1	96	48	4
TAP	98	48	1
STR	98	96	5
SI_	98	96	5	96	48	0
TAP	98	144	5
STR	98	192	3
SI_	98	192	3	96	48	7
TAP	98	240	3
STR	98	288	4
SCR	98	288	4	96	720	3
TAP	98	336	4
TTP	99	0	0	B	0	M1
TTP	99	0	0	C	1	M1
TTP	99	0	7	B	0	M1

T_REC_TAP	340
T_REC_BRK	2
T_REC_XTP	67
T_REC_HLD	93
T_REC_XHO	8
T_REC_STR	50
T_REC_BST	5
T_REC_XST	11
T_REC_TTP	56
T_REC_THO	2
T_REC_SLD	66
T_REC_ALL	700
T_NUM_TAP	524
T_NUM_BRK	7
T_NUM_HLD	103
T_NUM_SLD	66
T_NUM_ALL	700
T_JUDGE_TAP	531
T_JUDGE_HLD	208
T_JUDGE_SLD	66
T_JUDGE_ALL	805
TTM_EACHPAIRS	150
TTM_SCR_TAP	262000
TTM_SCR_BRK	18200
TTM_SCR_HLD	103000
TTM_SCR_SLD	99000
TTM_SCR_ALL	482200
TTM_SCR_S	467100
TTM_SCR_SS	481500
TTM_RAT_ACV	10014

