VERSION	0.00.00	1.03.00
FES_MODE	0
BPM_DEF	168.000	168.000	168.000	168.000
MET_DEF	4	4
RESOLUTION	384
CLK_DEF	384
COMPATIBLE_CODE	MA2

BPM	0	0	168.000
MET	0	0	4	4

XST	1	0	0
SXL	1	0	0	96	480	3
XTP	1	0	7
STR	3	0	4
SXL	3	0	4	96	480	7
TTP	5	0	0	E	0	L1
TTP	5	192	1	E	0	L1
TTP	6	0	2	E	0	L1
TTP	6	192	3	E	0	L1
TTP	7	0	4	E	0	L1
TTP	7	192	5	E	0	L1
TTP	8	0	6	E	0	L1
TTP	8	192	7	E	0	L1
HLD	9	0	6	384
HLD	10	0	7	384
HLD	11	0	0	384
TAP	12	0	1
TAP	12	192	2
TAP	12	192	3
HLD	13	0	2	384
HLD	14	0	3	384
HLD	15	0	4	384
TAP	16	0	5
TAP	16	192	6
TAP	16	192	7
TAP	17	0	6
TAP	17	96	6
TAP	17	192	6
TAP	17	192	7
TAP	18	0	1
TAP	18	96	1
TAP	18	192	0
TAP	18	192	1
TAP	19	0	6
TAP	19	96	6
TAP	19	192	6
TAP	19	192	7
TAP	20	0	0
TAP	20	96	0
TAP	20	192	1
TAP	20	192	7
TAP	21	0	2
TAP	21	96	2
TAP	21	192	2
TAP	21	192	3
TAP	22	0	5
TAP	22	96	5
TAP	22	192	4
TAP	22	192	5
TAP	23	0	2
TAP	23	96	2
TAP	23	192	2
TAP	23	192	3
TAP	24	0	4
TAP	24	96	3
TAP	24	192	2
TAP	24	192	5
TAP	25	0	6
TAP	25	48	6
TAP	25	96	6
TAP	25	192	6
TAP	25	192	7
TAP	25	288	6
TAP	25	288	7
TAP	26	0	1
TAP	26	48	1
TAP	26	96	1
TAP	26	192	0
TAP	26	192	1
TTP	27	0	2	E	0	L1
TTP	27	96	2	B	0	L1
TTP	27	192	3	B	0	L1
TTP	28	0	6	E	0	L1
TTP	28	96	5	B	0	L1
TTP	28	192	4	B	0	L1
TAP	29	0	2
TAP	29	48	2
TAP	29	96	2
TAP	29	192	2
TAP	29	192	3
TAP	29	288	2
TAP	29	288	3
TAP	30	0	5
TAP	30	48	5
TAP	30	96	5
TAP	30	192	4
TAP	30	192	5
TTP	31	0	6	E	0	L1
TTP	31	96	5	E	0	L1
TTP	31	192	4	E	0	L1
TTP	31	288	3	E	0	L1
TTP	32	0	2	E	0	L1
TTP	32	96	1	E	0	L1
TTP	32	192	0	E	0	L1
TAP	33	0	6
TAP	33	48	6
TAP	33	96	6
TAP	33	192	6
TAP	33	192	7
TAP	33	288	6
TAP	33	288	7
TAP	34	0	1
TAP	34	48	1
TAP	34	96	1
TAP	34	192	0
TAP	34	192	1
TTP	35	0	2	E	0	L1
TTP	35	96	2	B	0	L1
TTP	35	192	3	B	0	L1
TTP	36	0	6	E	0	L1
TTP	36	96	5	B	0	L1
TTP	36	192	4	B	0	L1
TAP	37	0	2
TAP	37	48	2
TAP	37	96	2
TAP	37	192	2
TAP	37	192	3
TAP	37	288	2
TAP	37	288	3
TAP	38	0	5
TAP	38	48	5
TAP	38	96	5
TAP	38	192	4
TAP	38	192	5
TAP	39	0	6
TAP	39	96	6
TAP	39	192	6
TAP	39	192	7
TAP	40	0	0
TAP	40	0	7
TAP	40	96	0
TAP	40	96	7
TAP	40	192	1
TAP	40	192	6
STR	41	0	1
SI_	41	0	1	96	144	4
TAP	42	0	5
TAP	42	96	5
TAP	42	192	4
TAP	42	192	5
STR	43	0	6
SI_	43	0	6	96	144	3
TAP	44	0	2
TAP	44	96	2
TAP	44	192	2
TAP	44	192	3
STR	45	0	2
SI_	45	0	2	96	144	7
TAP	46	0	6
TAP	46	96	6
TAP	46	192	6
TAP	46	192	7
TAP	47	0	5
TAP	47	96	5
TAP	47	192	4
TAP	47	288	4
TAP	48	0	3
TAP	48	96	3
TAP	48	96	4
TAP	48	192	2
TAP	48	192	5
HLD	49	0	1	384
HLD	50	0	0	384
HLD	51	0	7	384
TAP	52	0	6
TAP	52	192	4
TAP	52	192	5
TTP	53	0	3	B	0	L1
TTP	53	0	4	B	0	L1
TTP	53	192	2	B	0	L1
TTP	54	0	0	B	0	L1
TTP	54	0	1	B	0	L1
TTP	54	192	7	B	0	L1
TTP	55	0	4	B	0	L1
TTP	55	0	5	B	0	L1
TTP	55	192	2	B	0	L1
TTP	55	192	3	B	0	L1
TTP	56	0	4	E	0	L1
TTP	56	96	0	C	0	L1
TTP	56	192	0	E	0	L1
STR	57	0	6
SCL	57	0	6	96	144	3
STR	58	0	2
SCL	58	0	2	96	144	7
TAP	59	0	6
TAP	59	96	6
TAP	59	192	7
TAP	60	0	0
TAP	60	96	0
TAP	60	192	1
TAP	60	192	7
TAP	61	0	2
TAP	61	96	2
TAP	61	192	3
TAP	62	0	5
TAP	62	96	5
TAP	62	192	3
TAP	62	192	4
STR	63	0	3
SCL	63	0	3	96	144	0
STR	64	0	7
SCL	64	0	7	96	144	4
TAP	65	0	2
TAP	65	96	2
TAP	65	192	2
TAP	65	192	3
TAP	66	0	5
TAP	66	96	5
TAP	66	192	4
TAP	66	192	5
TAP	67	0	2
TAP	67	96	2
TAP	67	192	3
TAP	67	288	3
TAP	68	0	4
TAP	68	96	4
TAP	68	192	3
TAP	68	192	5
TAP	69	0	6
TAP	69	96	6
TAP	69	192	6
TAP	69	192	7
TAP	70	0	1
TAP	70	96	1
TAP	70	192	0
TAP	70	192	1
STR	71	0	2
SCL	71	0	2	96	144	7
STR	72	0	6
SCL	72	0	6	96	144	3
TTP	73	0	0	C	1	L1
TTP	74	0	4	E	0	L1
TAP	75	0	5
TAP	75	96	5
TAP	75	192	5
TAP	76	0	2
TAP	76	96	2
TAP	76	192	2
TAP	77	0	1
TAP	77	96	1
TAP	77	192	0
TAP	77	288	0
TAP	78	0	7
TAP	78	96	7
TAP	78	192	6
TAP	78	288	6
TAP	79	0	5
TAP	79	96	5
TAP	79	192	4
TAP	79	288	4
TAP	80	0	3
TAP	80	0	4
TAP	80	96	3
TAP	80	96	4
TAP	80	192	2
TAP	80	192	5
BRK	81	0	6
TAP	81	48	6
TAP	81	96	6
TAP	81	96	7
TAP	81	192	1
TAP	81	240	1
TAP	81	288	0
TAP	81	288	1
TAP	82	0	2
TAP	82	48	2
TAP	82	96	2
TAP	82	96	3
TAP	82	192	4
TAP	82	240	4
TAP	82	288	3
TAP	82	288	5
TAP	83	0	6
TAP	83	96	6
TAP	83	192	6
TAP	83	192	7
TAP	83	288	6
TAP	83	288	7
TAP	84	0	5
TAP	84	96	4
TAP	84	192	3
TAP	84	192	5
BRK	85	0	2
TAP	85	48	2
TAP	85	96	2
TAP	85	96	3
TAP	85	192	5
TAP	85	240	5
TAP	85	288	4
TAP	85	288	5
TAP	86	0	6
TAP	86	48	6
TAP	86	96	6
TAP	86	96	7
TAP	86	192	0
TAP	86	240	0
TAP	86	288	1
TAP	86	288	7
TAP	87	0	2
TAP	87	96	2
TAP	87	192	2
TAP	87	192	3
TAP	87	288	2
TAP	87	288	3
TAP	88	0	1
TAP	88	96	0
TAP	88	96	7
TAP	88	192	1
TAP	88	192	6
BRK	89	0	5
TAP	89	48	5
TAP	89	96	4
TAP	89	96	5
TAP	89	192	2
TAP	89	240	2
TAP	89	288	2
TAP	89	288	3
TAP	90	0	1
TAP	90	48	1
TAP	90	96	0
TAP	90	96	1
TAP	90	192	7
TAP	90	240	7
TAP	90	288	0
TAP	90	288	6
TAP	91	0	5
TAP	91	96	4
TAP	91	96	5
TAP	91	192	5
TAP	91	288	4
TAP	91	288	5
TAP	92	0	6
TAP	92	96	7
TAP	92	192	0
TAP	92	192	6
BRK	93	0	1
TAP	93	48	1
TAP	93	96	0
TAP	93	96	1
TAP	93	192	6
TAP	93	240	6
TAP	93	288	6
TAP	93	288	7
TAP	94	0	5
TAP	94	48	5
TAP	94	96	4
TAP	94	96	5
TAP	94	192	3
TAP	94	240	3
TAP	94	288	2
TAP	94	288	4
TAP	95	0	1
TAP	95	96	0
TAP	95	96	1
TAP	95	192	1
TAP	95	288	0
TAP	95	288	1
TAP	96	0	2
TAP	96	48	2
TAP	96	96	2
TAP	96	192	3
TAP	96	192	4
TAP	96	288	2
TAP	96	288	5
TAP	97	0	3
TAP	97	0	4
TAP	97	48	3
TAP	97	48	4
TAP	97	96	3
TAP	97	96	4
TAP	97	192	2
TAP	97	192	5
TAP	97	240	2
TAP	97	240	5
TAP	97	288	2
TAP	97	288	5
TAP	98	0	1
TAP	98	0	6
TAP	98	48	1
TAP	98	48	6
TAP	98	96	1
TAP	98	96	6
TAP	98	192	0
TAP	98	192	7
TAP	98	240	0
TAP	98	240	7
TAP	98	288	0
TAP	98	288	7
BST	99	0	0
SXL	99	0	0	96	480	3
BST	99	0	7
SXR	99	0	7	96	480	4

T_REC_TAP	310
T_REC_BRK	4
T_REC_XTP	1
T_REC_HLD	9
T_REC_XHO	0
T_REC_STR	10
T_REC_BST	2
T_REC_XST	1
T_REC_TTP	42
T_REC_THO	0
T_REC_SLD	13
T_REC_ALL	392
T_NUM_TAP	364
T_NUM_BRK	6
T_NUM_HLD	9
T_NUM_SLD	13
T_NUM_ALL	392
T_JUDGE_TAP	370
T_JUDGE_HLD	72
T_JUDGE_SLD	13
T_JUDGE_ALL	455
TTM_EACHPAIRS	86
TTM_SCR_TAP	182000
TTM_SCR_BRK	15600
TTM_SCR_HLD	9000
TTM_SCR_SLD	19500
TTM_SCR_ALL	226100
TTM_SCR_S	218750
TTM_SCR_SS	225500
TTM_RAT_ACV	10026

