VERSION	0.00.00	1.03.00
FES_MODE	0
BPM_DEF	168.000	168.000	168.000	168.000
MET_DEF	4	4
RESOLUTION	384
CLK_DEF	384
COMPATIBLE_CODE	MA2

BPM	0	0	168.000
MET	0	0	4	4

HLD	5	0	0	384
HLD	7	0	7	384
STR	9	0	0
SI_	9	0	0	96	288	3
STR	11	0	7
SI_	11	0	7	96	288	4
STR	13	0	0
SI_	13	0	0	96	288	4
STR	15	0	7
SI_	15	0	7	96	288	3
TAP	17	0	0
TAP	18	0	0
TAP	19	0	1
TAP	20	0	1
TAP	21	0	2
TAP	22	0	2
TAP	23	0	3
TAP	24	0	3
TAP	24	0	4
TAP	25	0	4
TAP	25	192	4
TAP	26	0	4
TAP	27	0	5
TAP	27	192	5
TAP	28	0	5
TAP	29	0	6
TAP	29	192	6
TAP	30	0	6
TAP	31	0	7
TAP	31	192	7
TAP	32	0	0
TAP	32	0	7
TAP	33	0	7
TAP	33	192	7
TAP	34	0	6
TAP	35	0	5
TAP	35	192	5
TAP	36	0	3
TAP	36	0	4
TAP	37	0	3
TAP	37	192	3
TAP	38	0	2
TAP	39	0	1
TAP	39	192	1
TAP	40	0	0
TAP	40	0	7
TTP	41	0	0	B	0	L1
TTP	42	0	7	B	0	L1
TTP	43	0	1	B	0	L1
TTP	44	0	6	B	0	L1
TTP	45	0	2	B	0	L1
TTP	46	0	5	B	0	L1
TTP	47	0	2	B	0	L1
TTP	47	0	3	B	0	L1
TTP	48	0	4	B	0	L1
TTP	48	0	5	B	0	L1
THO	49	0	0	768	C	0	L1
HLD	53	0	0	384
HLD	53	0	1	384
HLD	55	0	6	384
HLD	55	0	7	384
TAP	57	0	0
TAP	57	192	0
TAP	58	0	0
TAP	58	0	1
TAP	59	0	2
TAP	59	192	2
TAP	60	0	2
TAP	60	0	3
TAP	61	0	4
TAP	61	192	4
TAP	62	0	4
TAP	62	0	5
TAP	63	0	6
TAP	63	192	6
TAP	64	0	6
TAP	64	0	7
TAP	65	0	7
TAP	65	192	7
TAP	66	0	6
TAP	66	96	6
TAP	66	192	6
TAP	67	0	5
TAP	67	192	5
TAP	68	0	4
TAP	68	96	4
TAP	68	192	3
TAP	68	192	4
TAP	69	0	3
TAP	69	96	3
TAP	69	192	3
TAP	70	0	2
TAP	70	96	2
TAP	70	192	2
TAP	71	0	1
TAP	71	96	1
TAP	71	192	1
TAP	72	0	0
TAP	72	96	0
TAP	72	192	0
TAP	72	192	7
STR	73	0	7
SI_	73	0	7	96	288	4
STR	75	0	3
SI_	75	0	3	96	288	7
STR	77	0	6
SI_	77	0	6	96	288	2
STR	79	0	1
SI_	79	0	1	96	288	5
BRK	81	0	7
TAP	81	96	7
TAP	81	192	7
TAP	81	288	7
TAP	82	0	6
TAP	82	96	6
TAP	82	192	6
TAP	82	192	7
TAP	83	0	5
TAP	83	96	5
TAP	83	192	5
TAP	83	288	5
TAP	84	0	4
TAP	84	96	4
TAP	84	192	4
TAP	84	192	5
BRK	85	0	3
TAP	85	96	3
TAP	85	192	3
TAP	85	288	3
TAP	86	0	2
TAP	86	96	2
TAP	86	192	2
TAP	86	192	3
TAP	87	0	1
TAP	87	96	1
TAP	87	192	1
TAP	87	288	1
TAP	88	0	0
TAP	88	96	0
TAP	88	192	0
TAP	88	192	7
BRK	89	0	0
TAP	89	96	0
TAP	89	192	1
TAP	89	288	1
TAP	90	0	2
TAP	90	96	2
TAP	90	192	2
TAP	90	192	3
TAP	91	0	4
TAP	91	96	4
TAP	91	192	5
TAP	91	288	5
TAP	92	0	6
TAP	92	96	6
TAP	92	192	0
TAP	92	192	7
TAP	93	0	7
TAP	93	96	7
TAP	93	192	6
TAP	93	288	6
TAP	94	0	5
TAP	94	96	5
TAP	94	192	4
TAP	94	192	5
TAP	94	288	4
TAP	94	288	5
TAP	95	0	3
TAP	95	96	3
TAP	95	192	2
TAP	95	288	2
TAP	96	0	1
TAP	96	96	1
TAP	96	192	0
TAP	96	288	0
TAP	97	0	0
TAP	97	0	7
TAP	97	96	0
TAP	97	96	7
TAP	97	192	1
TAP	97	192	6
TAP	97	288	1
TAP	97	288	6
TAP	98	0	2
TAP	98	0	5
TAP	98	96	2
TAP	98	96	5
TAP	98	192	3
TAP	98	192	4
TAP	98	288	3
TAP	98	288	4
BRK	99	0	2
BRK	99	0	5

T_REC_TAP	155
T_REC_BRK	5
T_REC_XTP	0
T_REC_HLD	6
T_REC_XHO	0
T_REC_STR	8
T_REC_BST	0
T_REC_XST	0
T_REC_TTP	10
T_REC_THO	1
T_REC_SLD	8
T_REC_ALL	193
T_NUM_TAP	173
T_NUM_BRK	5
T_NUM_HLD	7
T_NUM_SLD	8
T_NUM_ALL	193
T_JUDGE_TAP	178
T_JUDGE_HLD	64
T_JUDGE_SLD	8
T_JUDGE_ALL	250
TTM_EACHPAIRS	29
TTM_SCR_TAP	86500
TTM_SCR_BRK	13000
TTM_SCR_HLD	7000
TTM_SCR_SLD	12000
TTM_SCR_ALL	118500
TTM_SCR_S	114500
TTM_SCR_SS	118000
TTM_RAT_ACV	10042

