VERSION	0.00.00	1.03.00
FES_MODE	0
BPM_DEF	147.000	147.000	147.000	147.000
MET_DEF	4	4
RESOLUTION	384
CLK_DEF	384
COMPATIBLE_CODE	MA2

BPM	0	0	147.000
MET	0	0	4	4

TAP	1	0	5
TAP	1	24	4
TAP	1	48	3
HLD	1	72	2	552
TAP	2	240	5
TAP	2	264	3
TAP	2	288	5
TAP	2	312	2
TAP	2	336	4
TAP	2	360	2
TAP	3	0	5
TAP	3	24	4
TAP	3	48	3
HLD	3	72	2	48
TAP	3	120	4
TAP	3	144	3
TAP	3	168	4
TAP	3	240	2
TAP	3	264	4
TAP	3	288	2
TAP	3	312	5
TAP	3	336	3
TAP	3	360	5
XTP	4	0	2
TAP	4	24	4
TAP	4	48	2
XTP	4	72	5
TAP	4	96	3
TAP	4	120	5
XHO	4	144	2	192
THO	4	192	0	144	C	0	M1
BST	5	0	1
SLR	5	0	1	96	96	5
TAP	5	96	6
TAP	5	144	7
STR	5	192	0
SLL	5	192	0	96	96	4
TAP	5	288	1
STR	6	0	7
SLR	6	0	7	96	96	3
TAP	6	96	4
STR	6	192	6
SI_	6	192	6	96	48	3
TAP	6	288	4
STR	7	0	2
SLL	7	0	2	96	96	6
TAP	7	96	6
TAP	7	144	5
STR	7	192	4
SLR	7	192	4	96	96	0
TAP	7	288	7
TAP	8	0	1
TAP	8	48	2
TAP	8	96	3
TAP	8	96	4
TAP	8	144	5
TAP	8	168	4
TAP	8	192	5
TAP	8	240	2
TAP	8	264	3
TAP	8	288	2
XHO	9	0	1	96
TAP	9	48	2
TAP	9	96	3
TAP	9	144	4
HLD	9	192	2	96
TAP	9	240	3
TAP	9	288	4
TAP	9	336	5
HLD	10	0	3	96
TAP	10	48	4
TAP	10	96	5
TAP	10	144	6
STR	10	192	5
SCL	10	192	5	96	48	2
HLD	10	192	7	96
HLD	11	0	6	96
TAP	11	48	5
TAP	11	96	4
TAP	11	144	3
HLD	11	192	5	96
TAP	11	240	4
TAP	11	288	3
TAP	11	336	2
TAP	12	0	0
TAP	12	0	1
TAP	12	96	3
TAP	12	144	2
TAP	12	144	4
STR	12	192	1
SUR	12	192	1	96	48	5
STR	12	192	5
SUR	12	192	5	96	48	1
XTP	13	0	2
XTP	13	0	7
XTP	13	48	1
XTP	13	72	0
TAP	13	120	6
XTP	13	144	7
XTP	13	192	0
XST	13	192	5
SI_	13	192	5	96	48	0
TAP	13	288	5
TAP	13	336	1
TAP	13	360	2
XHO	14	0	3	72
XHO	14	72	5	72
XTP	14	144	7
TAP	14	168	6
XST	14	192	7
SCR	14	192	7	96	48	3
TAP	14	288	5
TAP	14	336	6
STR	15	0	7
SUL	15	0	7	96	48	3
TAP	15	96	2
TAP	15	144	1
STR	15	192	0
SUR	15	192	0	96	48	4
TAP	15	288	5
TAP	15	336	6
TAP	16	0	2
TAP	16	0	7
TAP	16	48	1
TAP	16	96	0
TAP	16	96	5
TAP	16	144	6
TAP	16	192	2
TAP	16	192	7
TAP	16	240	1
TAP	16	264	0
TAP	16	288	1
TAP	16	312	0
TAP	16	336	1
STR	17	0	2
SV_	17	0	2	96	48	7
STR	17	0	4
SV_	17	0	4	96	48	7
HLD	17	192	6	72
HLD	17	264	5	72
TAP	17	336	4
TAP	18	48	3
TAP	18	48	4
TAP	18	96	2
TAP	18	96	3
TAP	18	144	1
TAP	18	168	2
TAP	18	240	3
TAP	18	240	4
TAP	18	288	3
TAP	18	288	4
HLD	19	0	5	72
TAP	19	72	4
TAP	19	96	6
TAP	19	144	3
HLD	19	192	2	72
TAP	19	264	3
TAP	19	288	1
TAP	19	336	4
TAP	20	0	2
TAP	20	0	3
TAP	20	72	0
TAP	20	72	7
TAP	20	144	4
TAP	20	144	5
XTP	20	240	2
XTP	20	240	3
XTP	20	288	2
XTP	20	288	3
TAP	21	0	1
TAP	21	0	4
HLD	21	48	2	72
HLD	21	120	3	72
HLD	21	192	4	72
HLD	21	264	5	72
TAP	21	336	4
TAP	22	0	3
TAP	22	0	6
HLD	22	48	5	72
HLD	22	120	4	72
HLD	22	192	3	72
HLD	22	264	2	72
TAP	22	336	3
XST	23	0	1
SLR	23	0	1	96	96	7
XTP	23	0	4
TAP	23	72	5
TAP	23	144	6
XST	23	192	6
SLL	23	192	6	96	96	0
TAP	23	264	2
TAP	23	336	1
BRK	24	0	1
BRK	24	72	3
BRK	24	72	4
BRK	24	144	6
BRK	24	144	7
STR	24	288	4
SI_	24	288	4	96	48	1
STR	24	288	5
SI_	24	288	5	96	48	0
BRK	25	0	4
BRK	25	0	5
TAP	25	96	2
TAP	25	96	7
TAP	25	144	2
TAP	25	168	3
TAP	25	216	3
STR	25	240	2
SUR	25	240	2	96	144	5
STR	25	288	6
SCR	25	288	6	96	96	1
TAP	26	144	0
TAP	26	192	3
TAP	26	192	7
TAP	26	240	6
TAP	26	288	2
STR	26	288	5
SI_	26	288	5	96	48	1
TAP	26	336	1
BRK	27	0	0
BRK	27	0	5
TAP	27	96	2
TAP	27	96	3
TAP	27	144	5
TAP	27	168	4
TAP	27	216	4
TAP	27	240	5
STR	27	288	6
SUR	27	288	6	96	144	7
STR	27	288	7
SCR	27	288	7	96	144	6
TAP	27	336	6
TAP	27	336	7
TAP	28	192	0
TAP	28	192	1
TAP	28	240	2
TAP	28	240	3
STR	28	288	4
SI_	28	288	4	96	48	1
STR	28	288	5
SI_	28	288	5	96	48	0
BRK	29	0	4
BRK	29	0	5
TAP	29	96	2
TAP	29	96	7
TAP	29	144	2
TAP	29	168	3
TAP	29	216	3
TAP	29	240	2
STR	29	288	1
SI_	29	288	1	96	48	5
TAP	29	288	4
TAP	29	336	5
TAP	30	0	6
XTP	30	96	4
XST	30	96	6
SUL	30	96	6	96	48	2
XST	30	192	1
SUR	30	192	1	96	48	5
XTP	30	192	6
XTP	30	288	1
XTP	30	288	6
XST	31	0	7
SI_	31	0	7	96	72	4
STR	31	72	4
SI_	31	72	4	96	72	1
STR	31	144	1
SI_	31	144	1	96	48	7
XST	31	192	7
SCL	31	192	7	96	96	4
TAP	31	336	3
TAP	31	360	2
XST	32	0	1
SI_	32	0	1	96	48	5
TAP	32	72	3
TAP	32	144	4
TAP	32	192	6
TAP	32	216	7
TAP	32	240	6
BRK	32	288	1
BRK	32	288	5
XHO	33	0	7	96
TAP	33	48	1
HLD	33	96	1	96
TAP	33	144	3
HLD	33	192	3	96
TAP	33	240	5
HLD	33	288	5	96
TAP	33	336	7
STR	34	0	7
SI_	34	0	7	96	48	3
STR	34	48	1
SI_	34	48	1	96	48	5
STR	34	96	7
SCR	34	96	7	96	96	6
TAP	34	144	1
TAP	34	192	7
TAP	34	288	1
TAP	34	336	0
TAP	34	336	7
BRK	35	0	1
BRK	35	0	6
TAP	35	96	2
TAP	35	96	7
TAP	35	144	1
TAP	35	168	0
STR	35	192	1
SI_	35	192	1	96	48	3
STR	35	240	3
SI_	35	240	3	96	48	5
STR	35	288	5
SUL	35	288	5	96	96	0
TAP	35	336	6
TAP	36	0	7
STR	36	96	6
SV_	36	96	6	96	48	3
TAP	36	144	7
TAP	36	192	0
BRK	36	288	2
BRK	36	288	4
XHO	37	0	0	96
TAP	37	48	6
HLD	37	96	6	96
TAP	37	144	4
HLD	37	192	4	96
TAP	37	240	2
HLD	37	288	2	96
TAP	37	336	0
STR	38	0	0
SI_	38	0	0	96	48	4
STR	38	48	6
SI_	38	48	6	96	48	2
STR	38	96	0
SCL	38	96	0	96	96	1
TAP	38	144	6
TAP	38	192	0
TAP	38	288	6
TAP	38	336	0
TAP	38	336	7
BRK	39	0	1
BST	39	0	6
SLL	39	0	6	96	96	7
TAP	39	96	2
TAP	39	144	1
TAP	39	192	0
TAP	39	240	1
TAP	39	240	6
TAP	39	288	2
TAP	39	288	5
TAP	39	336	3
TAP	39	336	4
BST	40	0	2
SLL	40	0	2	96	96	6
TAP	40	96	5
TAP	40	144	4
STR	40	192	3
SLR	40	192	3	96	96	7
TAP	40	288	2
STR	41	0	4
SLL	41	0	4	96	96	0
TAP	41	96	7
STR	41	192	5
SI_	41	192	5	96	48	0
TAP	41	288	7
STR	42	0	1
SLR	42	0	1	96	96	5
TAP	42	96	5
TAP	42	144	6
STR	42	192	7
SLL	42	192	7	96	96	3
TAP	42	288	4
TAP	43	0	2
TAP	43	48	1
TAP	43	96	0
TAP	43	96	7
TAP	43	144	6
TAP	43	168	7
STR	43	192	6
SI_	43	192	6	96	48	4
XHO	44	0	1	96
TAP	44	48	2
TAP	44	96	3
TAP	44	144	4
HLD	44	192	2	96
TAP	44	240	3
TAP	44	288	4
TAP	44	336	5
HLD	45	0	3	96
TAP	45	48	4
TAP	45	96	5
TAP	45	144	6
STR	45	192	4
SCL	45	192	4	96	48	1
TAP	45	192	7
XTP	45	240	6
XTP	45	288	5
HLD	46	0	6	96
TAP	46	48	5
TAP	46	96	4
TAP	46	144	3
HLD	46	192	5	96
TAP	46	240	4
TAP	46	288	3
TAP	46	336	2
TAP	47	0	3
TAP	47	0	4
TAP	47	96	7
TAP	47	144	0
TAP	47	144	6
STR	47	192	1
SI_	47	192	1	96	48	5
STR	47	192	5
SI_	47	192	5	96	48	1
HLD	48	0	3	144
HLD	48	0	7	144
TAP	48	192	6
TAP	48	224	4
TAP	48	256	5
TAP	48	288	1
TAP	48	320	3
TAP	48	352	2
HLD	49	0	6	48
HLD	49	48	5	48
HLD	49	96	4	48
HLD	49	144	3	48
HLD	49	192	2	32
HLD	49	240	1	32
HLD	49	288	0	32
HLD	49	336	7	32
XTP	50	0	6
TAP	50	24	7
TAP	50	48	6
TAP	50	96	5
TAP	50	120	4
TAP	50	168	6
TAP	50	192	7
TAP	50	240	5
TAP	50	264	4
TAP	50	288	5
TAP	50	312	4
TAP	50	336	5
XTP	51	0	2
TAP	51	24	3
TAP	51	48	2
TAP	51	96	1
TAP	51	120	0
TAP	51	168	2
TAP	51	192	3
TAP	51	240	1
TAP	51	264	0
TAP	51	288	1
TAP	51	312	0
TAP	51	336	1
TAP	52	0	0
STR	52	0	7
SSL	52	0	7	96	576	3
HLD	53	0	7	48
HLD	53	96	7	48
STR	53	192	7
SI_	53	192	7	96	48	4
STR	54	0	3
SV_	54	0	3	96	48	0
STR	54	0	5
SV_	54	0	5	96	48	0
HLD	54	192	1	72
HLD	54	264	2	72
TAP	54	336	3
TAP	55	48	3
TAP	55	48	4
TAP	55	96	4
TAP	55	96	5
STR	55	144	6
SXL	55	144	6	96	144	1
TAP	55	168	5
TAP	55	240	4
TAP	55	288	3
TAP	55	336	2
HLD	56	0	2	72
TAP	56	72	3
TAP	56	96	1
TAP	56	144	5
HLD	56	192	5	72
TAP	56	264	4
TAP	56	288	6
TAP	56	336	2
TAP	57	0	3
TAP	57	0	4
TAP	57	72	0
TAP	57	72	1
XTP	57	144	6
XTP	57	168	6
XTP	57	216	7
XTP	57	240	7
TAP	57	288	0
TAP	57	288	5
TAP	57	336	1
TAP	57	336	6
TAP	58	0	2
TAP	58	0	7
HLD	58	48	1	72
HLD	58	120	0	72
HLD	58	192	7	72
HLD	58	264	6	72
TAP	58	336	7
TAP	59	0	0
TAP	59	0	5
HLD	59	48	6	72
HLD	59	120	7	72
HLD	59	192	0	72
HLD	59	264	1	72
TAP	59	336	0
XST	60	0	2
SLL	60	0	2	96	96	4
XTP	60	0	7
TAP	60	72	6
TAP	60	144	5
XST	60	192	5
SLR	60	192	5	96	96	3
TAP	60	264	1
TAP	60	336	2
BRK	61	0	2
BRK	61	72	5
BRK	61	72	6
BRK	61	144	0
BRK	61	144	1
XHO	62	0	1	672
TTP	62	72	6	E	0	M1
TTP	62	144	5	E	0	M1
TTP	62	216	4	E	0	M1
TTP	62	288	3	E	0	M1
TTP	62	360	2	E	0	M1
TTP	63	48	1	E	0	M1
TTP	63	120	0	E	0	M1
TTP	63	192	7	E	0	M1
TTP	63	264	6	E	0	M1
TTP	63	336	5	E	0	M1
XHO	64	0	6	672
TTP	64	72	2	E	0	M1
TTP	64	144	3	E	0	M1
TTP	64	216	4	E	0	M1
TTP	64	288	5	E	0	M1
TTP	64	360	6	E	0	M1
TTP	65	48	7	E	0	M1
TTP	65	120	0	E	0	M1
TTP	65	192	1	E	0	M1
TTP	65	264	2	E	0	M1
TTP	65	336	3	E	0	M1
TAP	66	0	7
TAP	66	24	6
TAP	66	48	5
TAP	66	72	4
TAP	66	96	0
TAP	66	120	1
TAP	66	144	2
TAP	66	168	3
TAP	66	216	5
TAP	66	240	6
TAP	66	264	7
TAP	66	288	3
TAP	66	312	2
TAP	66	336	1
BRK	67	0	6
BRK	67	0	7
TAP	67	96	0
TAP	67	96	5
TAP	67	144	5
TAP	67	168	4
TAP	67	216	4
STR	67	240	5
SUL	67	240	5	96	144	2
STR	67	288	1
SCL	67	288	1	96	96	6
TAP	68	144	7
TAP	68	192	0
TAP	68	192	4
TAP	68	240	1
STR	68	288	2
SI_	68	288	2	96	48	6
TAP	68	288	5
TAP	68	336	6
BRK	69	0	2
BRK	69	0	7
TAP	69	96	4
TAP	69	96	5
TAP	69	144	2
TAP	69	168	3
TAP	69	216	3
TAP	69	240	2
STR	69	288	0
SCL	69	288	0	96	144	1
STR	69	288	1
SUL	69	288	1	96	144	0
TAP	69	336	0
TAP	69	336	1
TAP	70	192	6
TAP	70	192	7
TAP	70	240	4
TAP	70	240	5
STR	70	288	2
SI_	70	288	2	96	48	7
STR	70	288	3
SI_	70	288	3	96	48	6
BRK	71	0	2
BRK	71	0	3
TAP	71	96	0
TAP	71	96	5
TAP	71	144	5
TAP	71	168	4
TAP	71	216	4
TAP	71	240	5
TAP	71	288	3
STR	71	288	6
SI_	71	288	6	96	48	2
TAP	71	336	2
TAP	72	0	1
XST	72	96	1
SUR	72	96	1	96	48	5
XTP	72	96	3
XTP	72	192	1
XST	72	192	6
SUL	72	192	6	96	48	2
XTP	72	288	1
XTP	72	288	6
XST	73	0	0
SI_	73	0	0	96	72	3
STR	73	72	3
SI_	73	72	3	96	72	6
STR	73	144	6
SI_	73	144	6	96	48	0
XST	73	192	0
SCR	73	192	0	96	96	3
TAP	73	336	4
TAP	73	360	5
XST	74	0	6
SI_	74	0	6	96	48	2
TAP	74	72	4
TAP	74	144	3
TAP	74	192	1
TAP	74	216	0
TAP	74	240	1
BRK	74	288	2
BRK	74	288	6
XHO	75	0	0	96
TAP	75	48	6
HLD	75	96	6	96
TAP	75	144	4
HLD	75	192	4	96
TAP	75	240	2
HLD	75	288	2	96
TAP	75	336	0
STR	76	0	0
SI_	76	0	0	96	48	4
STR	76	48	6
SI_	76	48	6	96	48	2
STR	76	96	0
SCL	76	96	0	96	96	1
TAP	76	144	6
TAP	76	192	0
TAP	76	288	6
TAP	76	336	0
TAP	76	336	7
BRK	77	0	1
BRK	77	0	6
TAP	77	96	0
TAP	77	96	5
TAP	77	144	6
TAP	77	168	7
STR	77	192	6
SI_	77	192	6	96	48	4
STR	77	240	4
SI_	77	240	4	96	48	2
STR	77	288	2
SUR	77	288	2	96	96	7
TAP	77	336	1
TAP	78	0	0
STR	78	96	1
SV_	78	96	1	96	48	4
TAP	78	144	0
TAP	78	192	7
BRK	78	288	3
BRK	78	288	5
XHO	79	0	7	96
TAP	79	48	1
HLD	79	96	1	96
TAP	79	144	3
HLD	79	192	3	96
TAP	79	240	5
HLD	79	288	5	96
TAP	79	336	7
STR	80	0	7
SI_	80	0	7	96	48	3
STR	80	48	1
SI_	80	48	1	96	48	5
STR	80	96	7
SCR	80	96	7	96	96	6
TAP	80	144	1
TAP	80	192	7
TAP	80	288	1
TAP	80	336	0
TAP	80	336	7
BST	81	0	1
SLR	81	0	1	96	72	0
BRK	81	0	6
TAP	81	96	3
TAP	81	144	4
TAP	81	192	5
TAP	81	240	6
TAP	81	264	7
TAP	81	288	6
TAP	81	312	7
TAP	81	336	6
TAP	81	360	7
XHO	82	0	5	96
TAP	82	48	3
HLD	82	96	3	96
TAP	82	144	1
HLD	82	192	1	96
TAP	82	240	7
HLD	82	288	7	96
TAP	82	336	5
STR	83	0	5
SI_	83	0	5	96	48	1
STR	83	48	3
SI_	83	48	3	96	48	7
STR	83	96	5
SCR	83	96	5	96	48	0
TAP	83	144	3
TAP	83	192	5
TAP	83	288	3
TAP	83	336	2
TAP	83	336	6
BRK	84	0	1
BRK	84	0	5
TAP	84	96	2
TAP	84	120	3
TAP	84	144	2
TAP	84	168	3
STR	84	192	2
SI_	84	192	2	96	48	0
STR	84	240	0
SI_	84	240	0	96	48	6
STR	84	288	6
SUR	84	288	6	96	48	3
TAP	84	336	5
TAP	85	0	4
STR	85	96	5
SV_	85	96	5	96	48	0
TAP	85	144	4
TAP	85	192	3
BRK	85	288	1
BRK	85	288	7
XHO	86	0	2	96
TAP	86	48	4
HLD	86	96	4	96
TAP	86	144	6
HLD	86	192	6	96
TAP	86	240	0
HLD	86	288	0	96
TAP	86	336	2
STR	87	0	2
SI_	87	0	2	96	48	6
STR	87	48	4
SI_	87	48	4	96	48	0
STR	87	96	2
SCL	87	96	2	96	48	7
TAP	87	144	4
TAP	87	192	2
TAP	87	288	4
TAP	87	336	1
TAP	87	336	5
BST	88	0	2
SLR	88	0	2	96	96	0
BRK	88	0	6
TAP	88	96	5
TAP	88	144	6
TAP	88	192	7
TAP	88	240	1
TAP	88	240	6
TAP	88	288	2
TAP	88	288	5
TAP	88	336	3
TAP	88	336	4

T_REC_TAP	414
T_REC_BRK	41
T_REC_XTP	31
T_REC_HLD	65
T_REC_XHO	13
T_REC_STR	78
T_REC_BST	5
T_REC_XST	16
T_REC_TTP	20
T_REC_THO	1
T_REC_SLD	99
T_REC_ALL	783
T_NUM_TAP	559
T_NUM_BRK	46
T_NUM_HLD	79
T_NUM_SLD	99
T_NUM_ALL	783
T_JUDGE_TAP	605
T_JUDGE_HLD	186
T_JUDGE_SLD	99
T_JUDGE_ALL	890
TTM_EACHPAIRS	104
TTM_SCR_TAP	279500
TTM_SCR_BRK	119600
TTM_SCR_HLD	79000
TTM_SCR_SLD	148500
TTM_SCR_ALL	626600
TTM_SCR_S	603350
TTM_SCR_SS	622000
TTM_RAT_ACV	10073

