VERSION	0.00.00	1.03.00
FES_MODE	0
BPM_DEF	147.000	147.000	147.000	147.000
MET_DEF	4	4
RESOLUTION	384
CLK_DEF	384
COMPATIBLE_CODE	MA2

BPM	0	0	147.000
MET	0	0	4	4

TAP	1	0	3
TAP	1	24	4
TAP	1	48	2
TAP	1	72	5
HLD	2	240	3	72
HLD	2	240	4	72
TAP	3	0	2
TAP	3	0	5
STR	3	48	2
SXR	3	48	2	96	192	4
TAP	3	48	5
XST	4	0	6
SI_	4	0	6	96	72	2
BRK	4	192	0
TAP	5	0	1
TAP	5	0	3
TAP	5	96	2
HLD	5	144	2	96
TAP	5	240	3
TAP	5	288	3
TAP	6	0	4
TAP	6	96	3
TAP	6	96	5
TAP	6	192	6
TAP	6	240	6
TAP	6	288	4
TAP	7	0	4
TAP	7	0	6
TAP	7	96	5
HLD	7	144	5	96
TAP	7	240	4
TAP	7	288	4
TAP	8	0	4
TAP	8	0	6
STR	8	96	3
SCL	8	96	3	96	96	0
STR	8	96	7
SCL	8	96	7	96	96	4
HLD	9	0	1	384
TAP	9	96	3
TAP	9	192	3
TAP	9	288	3
TAP	10	0	3
TAP	10	96	4
TAP	10	144	4
STR	10	192	2
SI_	10	192	2	96	72	5
HLD	11	0	6	288
TAP	11	96	4
TAP	11	192	4
TAP	11	288	4
TAP	12	0	3
STR	12	0	5
SI_	12	0	5	96	72	2
TAP	12	192	0
TAP	12	240	0
TAP	12	288	7
HLD	13	0	1	72
HLD	13	72	2	72
TAP	13	144	3
TAP	13	192	3
TAP	13	288	3
TAP	13	288	4
HLD	14	0	6	72
HLD	14	72	5	72
TAP	14	144	4
TAP	14	192	4
TAP	14	288	3
TAP	14	288	4
HLD	15	0	2	96
TAP	15	144	1
TAP	15	144	3
HLD	15	192	1	96
HLD	15	192	3	96
TAP	16	0	4
TAP	16	0	6
STR	16	96	3
SI_	16	96	3	96	72	0
STR	16	96	7
SI_	16	96	7	96	72	4
XTP	17	0	3
XTP	17	0	4
XTP	17	48	3
XTP	17	48	4
TAP	17	192	6
TAP	17	192	7
TAP	17	264	0
TAP	17	264	7
STR	17	336	0
SUR	17	336	0	96	144	6
STR	17	336	1
SCR	17	336	1	96	144	5
TAP	18	288	7
STR	19	0	6
SI_	19	0	6	96	48	4
STR	19	192	0
SI_	19	192	0	96	72	4
XHO	20	0	7	72
XTP	20	72	1
XTP	20	144	1
XTP	20	144	7
TAP	20	240	2
TAP	20	240	6
TAP	20	288	2
TAP	20	288	6
TAP	21	0	3
TAP	21	0	5
TAP	21	48	3
TAP	21	48	5
TAP	21	144	0
TAP	21	144	1
TAP	21	192	0
TAP	21	192	1
TAP	21	264	0
TAP	21	264	7
STR	21	336	6
SCL	21	336	6	96	144	2
STR	21	336	7
SUL	21	336	7	96	144	1
TAP	22	288	0
STR	23	0	1
SI_	23	0	1	96	48	3
STR	23	192	7
SI_	23	192	7	96	72	3
HLD	24	0	1	72
HLD	24	72	7	72
TAP	24	144	0
BRK	25	0	0
BRK	25	0	1
TAP	25	96	2
TAP	25	96	7
TAP	25	192	6
TAP	25	240	6
STR	25	288	0
SCR	25	288	0	96	72	3
TAP	26	144	5
TAP	26	192	5
TAP	26	288	4
TAP	26	288	6
HLD	27	0	7	96
TAP	27	96	0
TAP	27	144	0
TAP	27	192	6
STR	27	288	1
SCR	27	288	1	96	96	4
STR	27	288	7
SCL	27	288	7	96	96	4
TAP	28	192	7
XTP	28	240	0
XTP	28	240	6
XTP	28	288	0
XTP	28	288	6
TAP	29	0	1
TAP	29	0	5
TAP	29	96	2
TAP	29	144	2
TAP	29	192	4
TAP	29	288	4
TAP	29	288	6
HLD	30	0	7	96
HLD	30	96	6	96
HLD	30	192	5	96
TAP	30	288	4
STR	31	0	3
SI_	31	0	3	96	48	1
STR	31	0	7
SI_	31	0	7	96	48	5
STR	31	192	0
SI_	31	192	0	96	48	2
STR	31	192	4
SI_	31	192	4	96	48	6
TAP	32	0	3
TAP	32	0	7
STR	32	96	1
SI_	32	96	1	96	72	6
STR	32	96	5
SI_	32	96	5	96	72	2
XTP	32	336	0
XTP	33	0	0
TAP	33	96	1
TAP	33	96	7
TAP	33	192	6
TAP	33	240	6
TAP	33	288	4
TAP	34	0	3
TAP	34	48	3
STR	34	96	4
SCR	34	96	4	96	72	7
TAP	34	336	1
HLD	35	0	1	96
TAP	35	96	0
TAP	35	192	6
TAP	35	240	6
TAP	35	288	7
TAP	36	0	0
TAP	36	0	5
TAP	36	96	1
TAP	36	144	1
TAP	36	192	0
TAP	36	288	2
TAP	36	288	7
TAP	37	0	5
TAP	37	96	4
TAP	37	96	6
TAP	37	192	1
TAP	37	240	1
TAP	37	288	3
TAP	37	336	3
TAP	38	0	2
TAP	38	96	4
TAP	38	144	4
STR	38	192	3
SI_	38	192	3	96	48	7
XST	39	0	0
SCR	39	0	0	96	72	3
XST	39	0	6
SCL	39	0	6	96	72	3
XHO	39	192	7	192
TAP	40	0	0
TAP	40	96	6
HLD	40	144	6	96
TAP	40	240	5
TAP	40	288	5
TAP	41	0	3
TAP	41	96	2
TAP	41	96	4
TAP	41	192	1
TAP	41	240	1
TAP	41	288	0
TAP	42	0	0
TAP	42	0	7
TAP	42	96	1
HLD	42	144	1	96
TAP	42	240	2
TAP	42	288	2
TAP	43	0	1
TAP	43	0	3
STR	43	96	0
SCR	43	96	0	96	96	3
STR	43	96	4
SCR	43	96	4	96	96	7
TAP	44	0	4
HLD	44	0	6	96
TAP	44	96	4
TAP	44	192	3
HLD	44	192	5	96
TAP	44	288	3
TAP	45	0	2
TAP	45	0	4
TAP	45	96	1
TAP	45	144	1
TAP	45	192	7
XTP	45	240	0
XTP	45	240	7
XTP	45	288	0
XTP	45	288	7
HLD	46	0	1	96
TAP	46	0	3
TAP	46	96	3
HLD	46	192	2	96
TAP	46	192	4
STR	46	288	4
SI_	46	288	4	96	72	7
TAP	47	96	0
TAP	47	192	7
TAP	47	240	7
STR	47	288	0
SCR	47	288	0	96	192	6
HLD	48	0	7	192
TAP	48	288	2
STR	48	288	4
SCR	48	288	4	96	192	2
HLD	49	0	3	192
TAP	49	288	4
TAP	49	336	4
HLD	50	0	2	96
TAP	50	144	1
TAP	50	144	3
TAP	50	192	1
TAP	50	192	3
STR	50	288	7
SSR	50	288	7	96	144	3
STR	51	192	1
SI_	51	192	1	96	72	5
BRK	52	0	7
XTP	54	0	3
XTP	54	0	4
XTP	54	48	3
XTP	54	48	4
TAP	54	192	6
TAP	54	192	7
TAP	54	264	0
TAP	54	264	7
STR	54	336	0
SUR	54	336	0	96	144	6
STR	54	336	1
SCR	54	336	1	96	144	5
TAP	55	288	7
STR	56	0	6
SI_	56	0	6	96	48	4
STR	56	192	0
SI_	56	192	0	96	72	4
XHO	57	0	7	72
XTP	57	72	1
XTP	57	144	1
XTP	57	144	7
TAP	57	240	2
TAP	57	240	6
TAP	57	288	2
TAP	57	288	6
TAP	58	0	3
TAP	58	0	5
TAP	58	48	3
TAP	58	48	5
TAP	58	144	0
TAP	58	144	1
TAP	58	192	0
TAP	58	192	1
TAP	58	264	0
TAP	58	264	7
STR	58	336	6
SCL	58	336	6	96	144	2
STR	58	336	7
SUL	58	336	7	96	144	1
TAP	59	288	0
STR	60	0	1
SI_	60	0	1	96	48	3
STR	60	192	7
SI_	60	192	7	96	72	3
HLD	61	0	0	72
HLD	61	72	6	72
STR	61	144	4
SI_	61	144	4	96	72	0
TTP	62	0	0	C	1	M1
TTP	62	0	2	B	0	M1
TTP	62	0	6	B	0	M1
HLD	64	0	5	192
HLD	64	192	4	192
HLD	65	0	3	192
TAP	65	192	2
TAP	65	288	3
HLD	66	0	1	288
HLD	66	0	5	288
BRK	67	0	6
BRK	67	0	7
TAP	67	96	0
TAP	67	96	5
TAP	67	192	1
TAP	67	240	1
STR	67	288	7
SCL	67	288	7	96	72	4
TAP	68	144	2
TAP	68	192	2
TAP	68	288	1
TAP	68	288	3
HLD	69	0	0	96
TAP	69	96	7
TAP	69	144	7
TAP	69	192	1
STR	69	288	0
SCR	69	288	0	96	96	3
STR	69	288	6
SCL	69	288	6	96	96	3
TAP	70	192	0
XTP	70	240	1
XTP	70	240	7
XTP	70	288	1
XTP	70	288	7
TAP	71	0	2
TAP	71	0	6
TAP	71	96	5
TAP	71	144	5
TAP	71	192	3
TAP	71	288	1
TAP	71	288	3
TAP	72	0	0
TAP	72	0	6
TAP	72	96	2
TAP	72	96	3
TAP	72	192	4
TAP	72	192	5
TAP	72	288	1
TAP	72	288	7
HLD	73	0	6	72
HLD	73	72	4	72
TAP	73	144	3
TAP	73	192	3
TAP	73	288	1
TAP	73	288	5
HLD	74	0	3	72
HLD	74	72	1	72
TAP	74	144	0
TAP	74	192	0
XTP	74	240	1
XTP	74	240	7
TAP	74	336	2
TAP	74	336	6
BRK	75	0	2
BRK	75	0	6
TAP	75	96	3
TAP	75	96	4
TAP	75	192	1
TAP	75	240	1
TAP	75	288	3
TAP	76	0	4
TAP	76	48	4
STR	76	96	3
SCL	76	96	3	96	72	0
TAP	76	336	6
XHO	77	0	6	96
TAP	77	96	7
TAP	77	192	1
TAP	77	240	1
TAP	77	288	0
TAP	78	0	2
TAP	78	0	7
TAP	78	96	6
TAP	78	144	6
TAP	78	192	7
TAP	78	288	0
TAP	78	288	5
TAP	79	0	2
TAP	79	96	1
TAP	79	96	3
TAP	79	192	6
TAP	79	240	6
TAP	79	288	0
TAP	79	336	0
TAP	80	0	7
TAP	80	96	2
TAP	80	144	2
TAP	80	192	1
TAP	80	192	3
TAP	80	288	5
TAP	80	336	5
HLD	81	0	4	96
HLD	81	0	6	96
TAP	81	144	4
TAP	81	144	6
TAP	81	192	3
STR	81	192	7
SI_	81	192	7	96	72	3
BRK	82	0	0
TAP	82	96	1
TAP	82	96	7
TAP	82	192	6
TAP	82	240	6
TAP	82	288	4
TAP	83	0	3
TAP	83	48	3
STR	83	96	4
SCR	83	96	4	96	72	7
TAP	83	336	1
XHO	84	0	1	96
TAP	84	96	0
TAP	84	192	2
TAP	84	240	2
TAP	84	288	0
TAP	85	0	1
TAP	85	0	7
TAP	85	96	5
TAP	85	144	5
TAP	85	192	7
XTP	85	240	0
XTP	85	240	6
XTP	85	288	0
XTP	85	288	6
TAP	86	0	2
TAP	86	0	3
TAP	86	96	0
TAP	86	96	5
TAP	86	192	6
TAP	86	240	6
TAP	86	288	7
TAP	86	336	7
TAP	87	0	0
TAP	87	48	0
TAP	87	96	1
TAP	87	144	1
TAP	87	192	2
STR	87	288	0
SCR	87	288	0	96	96	3
STR	87	288	4
SCR	87	288	4	96	96	7
TTP	88	192	0	E	0	M1
TTP	88	240	0	C	0	M1
TTP	88	288	4	E	0	M1
TTP	88	336	2	E	0	M1
TTP	88	336	6	E	0	M1

T_REC_TAP	284
T_REC_BRK	9
T_REC_XTP	34
T_REC_HLD	43
T_REC_XHO	5
T_REC_STR	50
T_REC_BST	0
T_REC_XST	3
T_REC_TTP	8
T_REC_THO	0
T_REC_SLD	53
T_REC_ALL	489
T_NUM_TAP	379
T_NUM_BRK	9
T_NUM_HLD	48
T_NUM_SLD	53
T_NUM_ALL	489
T_JUDGE_TAP	388
T_JUDGE_HLD	126
T_JUDGE_SLD	53
T_JUDGE_ALL	567
TTM_EACHPAIRS	106
TTM_SCR_TAP	189500
TTM_SCR_BRK	23400
TTM_SCR_HLD	48000
TTM_SCR_SLD	79500
TTM_SCR_ALL	340400
TTM_SCR_S	329350
TTM_SCR_SS	339500
TTM_RAT_ACV	10026

