VERSION	0.00.00	1.03.00
FES_MODE	0
BPM_DEF	147.000	147.000	147.000	147.000
MET_DEF	4	4
RESOLUTION	384
CLK_DEF	384
COMPATIBLE_CODE	MA2

BPM	0	0	147.000
MET	0	0	4	4

TAP	5	0	2
TAP	5	192	2
TAP	6	0	3
TAP	6	192	3
TAP	7	0	4
TAP	7	192	4
HLD	8	0	5	192
TAP	8	192	4
TAP	9	0	6
TAP	9	96	6
TAP	9	192	6
TAP	10	0	7
TAP	10	96	7
TAP	10	192	7
TAP	11	0	0
TAP	11	96	0
TAP	11	192	0
TAP	12	0	1
TAP	12	96	1
TAP	12	192	1
HLD	13	0	2	192
TAP	13	192	3
TAP	14	0	2
TAP	14	96	2
TAP	14	192	3
HLD	15	0	5	192
TAP	15	192	4
TAP	16	0	5
TAP	16	96	5
TAP	16	192	4
STR	17	0	6
SI_	17	0	6	96	192	3
STR	18	0	1
SI_	18	0	1	96	192	5
STR	19	0	6
SI_	19	0	6	96	192	2
TAP	20	0	1
TAP	20	96	1
TAP	20	192	0
TAP	20	192	1
STR	21	0	1
SI_	21	0	1	96	192	4
STR	22	0	6
SI_	22	0	6	96	192	3
XTP	23	0	2
XTP	23	192	0
XTP	23	192	1
BRK	24	0	0
BRK	24	0	7
TAP	25	0	1
TAP	25	96	1
TAP	25	192	0
TAP	25	288	0
TAP	26	0	7
TAP	26	96	7
TAP	26	192	6
TAP	26	288	6
TAP	27	0	7
TAP	27	96	7
TAP	27	192	0
TAP	27	192	1
STR	27	288	0
SI_	27	288	0	96	192	5
STR	27	288	1
SI_	27	288	1	96	192	4
TAP	29	0	6
TAP	29	96	6
TAP	29	192	7
TAP	29	288	7
TAP	30	0	0
TAP	30	96	0
TAP	30	192	1
TAP	30	288	1
TAP	31	0	2
TAP	31	96	2
XTP	31	192	2
XTP	31	192	3
TAP	32	0	4
TAP	32	0	5
TAP	32	96	4
TAP	32	96	5
XTP	32	192	4
XTP	32	192	5
TAP	33	0	6
TAP	33	96	6
TAP	33	192	5
TAP	33	288	5
TAP	34	0	4
TAP	34	96	4
TAP	34	192	3
TAP	34	192	4
TAP	35	0	3
TAP	35	96	3
TAP	35	192	2
TAP	35	288	2
TAP	36	0	1
TAP	36	96	1
TAP	36	192	0
TAP	36	192	1
TAP	37	0	1
TAP	37	96	1
TAP	37	192	2
TAP	37	288	2
TAP	38	0	3
TAP	38	96	3
TAP	38	192	3
TAP	38	192	4
HLD	39	0	3	192
HLD	39	0	4	192
STR	40	0	1
SI_	40	0	1	96	192	4
TAP	41	0	5
TAP	41	96	5
TAP	41	192	5
STR	42	0	6
SI_	42	0	6	96	192	3
TAP	43	0	2
TAP	43	96	2
TAP	43	192	2
TTP	44	0	1	B	0	L1
TTP	44	96	2	B	0	L1
TTP	44	192	3	B	0	L1
TTP	45	0	6	B	0	L1
TTP	45	96	5	B	0	L1
TTP	45	192	4	B	0	L1
TTP	46	0	1	B	0	L1
TTP	46	96	2	B	0	L1
TTP	46	192	3	B	0	L1
TTP	46	288	4	B	0	L1
TTP	47	0	5	B	0	L1
TTP	47	96	6	B	0	L1
TTP	47	192	7	B	0	L1
HLD	48	0	1	192
TAP	48	192	0
TAP	49	0	1
TAP	49	96	1
TAP	49	192	0
TAP	49	192	1
HLD	50	0	6	192
TAP	50	192	7
TAP	51	0	6
TAP	51	96	6
TAP	51	192	6
TAP	51	192	7
STR	52	0	0
SXL	52	0	0	96	480	3
STR	52	0	7
SXR	52	0	7	96	480	4
STR	54	0	1
SI_	54	0	1	96	192	4
STR	55	0	6
SI_	55	0	6	96	192	2
STR	56	0	1
SI_	56	0	1	96	192	5
TAP	57	0	6
TAP	57	96	6
TAP	57	192	6
TAP	57	192	7
STR	58	0	6
SI_	58	0	6	96	192	3
STR	59	0	1
SI_	59	0	1	96	192	4
XTP	60	0	5
XTP	60	192	6
XTP	60	192	7
BRK	61	0	0
BRK	61	0	7
HLD	62	0	0	384
HLD	63	0	1	384
HLD	64	0	2	384
HLD	65	0	3	384
BRK	66	0	4
TAP	67	0	6
TAP	67	96	6
TAP	67	192	7
TAP	67	288	7
TAP	68	0	0
TAP	68	96	0
TAP	68	192	1
TAP	68	288	1
TAP	69	0	0
TAP	69	96	0
TAP	69	192	6
TAP	69	192	7
STR	69	288	6
SI_	69	288	6	96	192	3
STR	69	288	7
SI_	69	288	7	96	192	2
TAP	71	0	1
TAP	71	96	1
TAP	71	192	0
TAP	71	288	0
TAP	72	0	7
TAP	72	96	7
TAP	72	192	6
TAP	72	288	6
TAP	73	0	5
TAP	73	96	5
XTP	73	192	4
XTP	73	192	5
TAP	74	0	2
TAP	74	0	3
TAP	74	96	2
TAP	74	96	3
XTP	74	192	2
XTP	74	192	3
TAP	75	0	1
TAP	75	96	1
TAP	75	192	2
TAP	75	288	2
TAP	76	0	3
TAP	76	96	3
TAP	76	192	3
TAP	76	192	4
TAP	77	0	4
TAP	77	96	4
TAP	77	192	5
TAP	77	288	5
TAP	78	0	6
TAP	78	96	6
TAP	78	192	6
TAP	78	192	7
TAP	79	0	6
TAP	79	96	6
TAP	79	192	5
TAP	79	288	5
TAP	80	0	4
TAP	80	96	4
TAP	80	192	3
TAP	80	192	4
HLD	81	0	3	192
HLD	81	0	4	192
TAP	82	0	1
TAP	82	96	2
TAP	82	192	3
TAP	82	288	4
TAP	83	0	5
TAP	83	96	6
TAP	83	192	0
TAP	83	192	7
TAP	84	0	6
TAP	84	96	5
TAP	84	192	3
TAP	84	192	4
TAP	85	0	1
TAP	85	96	2
TAP	85	192	3
TAP	85	192	4
TAP	86	0	6
TAP	86	96	5
TAP	86	192	4
TAP	86	288	3
TAP	87	0	2
TAP	87	96	1
TAP	87	192	0
TAP	87	192	7
TAP	88	0	0
TAP	88	0	7
TAP	88	96	1
TAP	88	96	6
BRK	88	192	2
BRK	88	192	5

T_REC_TAP	179
T_REC_BRK	7
T_REC_XTP	14
T_REC_HLD	13
T_REC_XHO	0
T_REC_STR	18
T_REC_BST	0
T_REC_XST	0
T_REC_TTP	13
T_REC_THO	0
T_REC_SLD	18
T_REC_ALL	262
T_NUM_TAP	224
T_NUM_BRK	7
T_NUM_HLD	13
T_NUM_SLD	18
T_NUM_ALL	262
T_JUDGE_TAP	231
T_JUDGE_HLD	68
T_JUDGE_SLD	18
T_JUDGE_ALL	317
TTM_EACHPAIRS	36
TTM_SCR_TAP	112000
TTM_SCR_BRK	18200
TTM_SCR_HLD	13000
TTM_SCR_SLD	27000
TTM_SCR_ALL	170200
TTM_SCR_S	164450
TTM_SCR_SS	169500
TTM_RAT_ACV	10041

