VERSION	0.00.00	1.03.00
FES_MODE	0
BPM_DEF	147.000	147.000	147.000	147.000
MET_DEF	4	4
RESOLUTION	384
CLK_DEF	384
COMPATIBLE_CODE	MA2

BPM	0	0	147.000
MET	0	0	4	4

XTP	5	0	0
TAP	6	0	0
TAP	7	0	7
TAP	8	0	7
TAP	9	0	0
TAP	9	192	0
TAP	10	0	1
TAP	11	0	2
TAP	11	192	2
TAP	12	0	3
TAP	13	0	4
TAP	13	192	4
TAP	14	0	5
TAP	15	0	6
TAP	15	192	6
TAP	16	0	0
TAP	16	0	7
STR	17	0	7
SI_	17	0	7	96	288	4
STR	19	0	0
SI_	19	0	0	96	288	3
STR	21	0	4
SI_	21	0	4	96	288	7
TAP	23	0	0
TAP	23	192	0
XTP	24	0	0
XTP	24	0	7
TAP	25	0	7
TAP	25	96	7
TAP	25	192	7
TAP	26	0	6
TAP	26	0	7
TAP	27	0	5
TAP	27	96	5
TAP	27	192	5
TAP	28	0	4
TAP	28	0	5
TAP	29	0	3
TAP	29	96	3
TAP	29	192	3
TAP	30	0	2
TAP	30	0	3
TAP	31	0	1
TAP	31	96	1
TAP	31	192	1
TAP	32	0	0
TAP	32	0	1
TAP	33	0	0
TAP	33	96	0
TAP	33	192	0
TAP	34	0	1
TAP	34	192	1
TAP	35	0	2
TAP	35	96	2
TAP	35	192	2
TAP	36	0	3
TAP	36	192	3
TAP	37	0	4
TAP	37	96	4
TAP	37	192	4
TAP	38	0	5
TAP	38	192	5
TAP	39	0	6
TAP	39	0	7
TAP	40	0	0
TAP	40	96	0
TAP	40	192	0
TAP	41	0	0
TAP	41	0	1
TAP	42	0	7
TAP	42	96	7
TAP	42	192	7
TAP	43	0	6
TAP	43	0	7
HLD	44	0	6	384
HLD	44	0	7	384
HLD	46	0	4	384
HLD	46	0	5	384
HLD	48	0	2	384
HLD	48	0	3	384
HLD	50	0	0	384
HLD	50	0	1	384
HLD	52	0	0	384
HLD	52	0	7	384
TAP	54	0	1
TAP	54	96	1
TAP	54	192	1
TAP	55	0	0
TAP	55	0	1
TAP	56	0	2
TAP	56	96	2
TAP	56	192	2
TAP	57	0	2
TAP	57	0	3
TAP	58	0	5
TAP	58	96	5
TAP	58	192	5
TAP	59	0	4
TAP	59	0	5
TAP	60	0	6
TAP	60	96	6
TAP	60	192	6
TAP	61	0	6
TAP	61	0	7
TTP	62	0	0	B	0	L1
TTP	63	0	7	B	0	L1
TTP	64	0	1	B	0	L1
TTP	65	0	6	B	0	L1
TTP	66	0	0	C	0	L1
BRK	67	0	0
TAP	67	96	0
TAP	67	192	0
TAP	68	0	1
TAP	68	192	1
TAP	69	0	2
TAP	69	96	2
TAP	69	192	2
TAP	70	0	2
TAP	70	0	3
TAP	70	192	2
TAP	70	192	3
TAP	71	0	4
TAP	71	96	4
TAP	71	192	4
TAP	72	0	5
TAP	72	192	5
TAP	73	0	6
TAP	73	96	6
TAP	73	192	6
TAP	74	0	6
TAP	74	0	7
TAP	75	0	7
TAP	75	96	7
TAP	75	192	7
TAP	76	0	6
TAP	76	192	6
TAP	77	0	5
TAP	77	96	5
TAP	77	192	5
TAP	78	0	4
TAP	78	0	5
TAP	78	192	4
TAP	78	192	5
TAP	79	0	3
TAP	79	96	3
TAP	79	192	3
TAP	80	0	2
TAP	80	192	2
TAP	81	0	1
TAP	81	96	1
TAP	81	192	1
XTP	82	0	0
TAP	82	96	0
TAP	82	192	0
TAP	83	0	0
TAP	83	0	7
TAP	83	192	0
TAP	83	192	7
TAP	84	0	7
TAP	84	96	7
TAP	84	192	7
TAP	85	0	0
TAP	85	0	7
TAP	85	192	0
TAP	85	192	7
TAP	86	0	1
TAP	86	0	6
TAP	86	192	1
TAP	86	192	6
TAP	87	0	2
TAP	87	0	5
TAP	87	192	2
TAP	87	192	5
HLD	88	0	3	288
HLD	88	0	4	288

T_REC_TAP	147
T_REC_BRK	1
T_REC_XTP	4
T_REC_HLD	12
T_REC_XHO	0
T_REC_STR	3
T_REC_BST	0
T_REC_XST	0
T_REC_TTP	5
T_REC_THO	0
T_REC_SLD	3
T_REC_ALL	175
T_NUM_TAP	159
T_NUM_BRK	1
T_NUM_HLD	12
T_NUM_SLD	3
T_NUM_ALL	175
T_JUDGE_TAP	160
T_JUDGE_HLD	92
T_JUDGE_SLD	3
T_JUDGE_ALL	255
TTM_EACHPAIRS	32
TTM_SCR_TAP	79500
TTM_SCR_BRK	2600
TTM_SCR_HLD	12000
TTM_SCR_SLD	4500
TTM_SCR_ALL	98600
TTM_SCR_S	95550
TTM_SCR_SS	98500
TTM_RAT_ACV	10010

