VERSION	0.00.00	1.03.00
FES_MODE	0
BPM_DEF	145.000	145.000	145.000	145.000
MET_DEF	4	4
RESOLUTION	384
CLK_DEF	384
COMPATIBLE_CODE	MA2

BPM	0	0	145.000
MET	0	0	4	4

XTP	1	0	0
XTP	1	0	7
XTP	1	48	0
XTP	1	48	7
XTP	1	96	1
XTP	1	96	6
TAP	1	144	2
TAP	1	168	3
TAP	1	216	5
TAP	1	240	4
XTP	1	288	3
XTP	1	288	6
TAP	2	0	5
TAP	2	48	4
STR	2	96	3
SI_	2	96	3	96	48	0
TAP	2	144	2
HLD	2	192	1	72
TAP	2	336	0
TAP	2	336	1
STR	3	0	7
SI_	3	0	7	96	48	3
TAP	3	48	7
STR	3	96	2
SI_	3	96	2	96	48	7
TAP	3	144	2
TAP	3	192	6
TAP	3	240	6
TAP	3	288	0
TAP	3	336	1
TAP	4	0	5
TAP	4	48	4
STR	4	96	3
SUR	4	96	3	96	112	4
TAP	4	144	2
HLD	4	192	1	72
TAP	4	336	1
STR	5	0	0
SI_	5	0	0	96	48	4
TAP	5	48	0
TAP	5	96	5
TAP	5	144	6
XTP	5	192	4
BRK	5	192	7
TAP	6	0	3
TAP	6	0	4
TAP	6	96	3
TAP	6	96	4
TAP	6	192	3
STR	6	192	4
SI_	6	192	4	96	48	6
TAP	6	288	3
TAP	6	288	4
TAP	6	336	3
TAP	7	0	3
XTP	7	0	6
TAP	7	96	4
TAP	7	96	6
TAP	7	192	4
STR	7	192	6
SI_	7	192	6	96	48	3
TAP	7	288	2
TAP	7	288	6
TAP	7	336	2
TAP	8	0	2
XTP	8	0	3
STR	8	96	1
SI_	8	96	1	96	48	6
TAP	8	96	4
TAP	8	192	1
TAP	8	192	5
TAP	8	288	5
HLD	9	0	0	96
TAP	9	0	6
TTP	9	96	1	B	0	M1
TTP	9	192	4	E	0	M1
TTP	9	288	6	B	0	M1
TAP	10	0	4
TAP	10	0	5
TAP	10	96	4
TAP	10	96	5
TAP	10	192	4
STR	10	192	5
SI_	10	192	5	96	48	0
TAP	10	288	3
TAP	10	288	5
TAP	10	336	3
XTP	11	0	0
TAP	11	0	3
TAP	11	96	0
TAP	11	96	3
STR	11	192	0
SI_	11	192	0	96	48	4
TAP	11	192	3
TAP	11	288	0
TAP	11	288	2
TAP	11	336	2
TAP	12	0	2
XTP	12	0	4
TAP	12	96	2
TAP	12	96	4
STR	12	192	2
SI_	12	192	2	96	48	0
TAP	12	192	3
TAP	12	288	4
STR	13	0	4
SI_	13	0	4	96	48	0
TAP	13	0	5
STR	13	96	6
SCL	13	96	6	96	48	3
XTP	13	192	0
XTP	13	240	0
BRK	13	288	0
HLD	14	0	1	48
HLD	14	0	7	48
HLD	14	96	0	48
HLD	14	96	6	48
HLD	14	192	1	48
HLD	14	192	7	48
STR	14	288	0
SI_	14	288	0	96	48	3
TAP	14	336	0
STR	15	0	7
SI_	15	0	7	96	48	4
TAP	15	48	7
STR	15	96	3
SI_	15	96	3	96	48	7
TAP	15	144	3
TAP	15	192	4
TAP	15	240	5
TAP	15	288	6
TAP	15	288	7
TAP	15	336	0
STR	16	0	4
SI_	16	0	4	96	48	0
TAP	16	48	4
STR	16	96	2
SI_	16	96	2	96	48	4
TAP	16	144	2
TAP	16	192	7
TAP	16	240	6
STR	16	288	5
SI_	16	288	5	96	48	0
TAP	16	336	5
TAP	17	0	3
TAP	17	48	2
TAP	17	96	0
HLD	17	96	1	72
HLD	17	168	2	72
TAP	17	240	3
XTP	17	288	1
XTP	17	288	4
HLD	18	0	2	48
HLD	18	0	6	48
HLD	18	96	1	48
HLD	18	96	5	48
HLD	18	192	2	48
HLD	18	192	6	48
STR	18	288	7
SI_	18	288	7	96	48	4
TAP	18	336	7
STR	19	0	0
SI_	19	0	0	96	48	3
TAP	19	48	0
STR	19	96	4
SI_	19	96	4	96	48	0
TAP	19	144	4
TAP	19	192	3
TAP	19	240	2
TAP	19	288	0
TAP	19	288	1
TAP	19	336	2
STR	20	0	3
SI_	20	0	3	96	48	0
TAP	20	48	3
STR	20	96	4
SI_	20	96	4	96	48	7
TAP	20	144	4
STR	20	192	1
SI_	20	192	1	96	48	4
TAP	20	240	1
BST	20	288	0
SI_	20	288	0	96	48	5
BRK	20	336	0
TAP	21	0	3
TAP	21	48	2
HLD	21	96	1	72
TAP	21	96	3
TAP	21	168	0
TAP	21	240	0
TAP	21	240	7
STR	21	288	1
SI_	21	288	1	96	48	4
STR	21	288	6
SI_	21	288	6	96	48	3
TAP	21	336	2
TAP	21	336	5
BRK	22	0	1
BST	22	0	6
SXL	22	0	6	96	384	1
STR	23	0	2
SXL	23	0	2	96	384	5
TTP	24	0	0	E	0	M1
TTP	24	192	0	C	0	M1
TTP	25	0	4	E	0	M1
TAP	25	192	3
STR	25	192	5
SI_	25	192	5	96	48	7
STR	25	288	1
SI_	25	288	1	96	48	3
SI_	25	288	1	96	48	5
TAP	26	144	5
HLD	26	192	5	144
TAP	26	336	4
HLD	27	0	4	144
TAP	27	144	3
TAP	27	192	3
TAP	27	288	2
TAP	27	288	4
HLD	28	0	1	96
TAP	28	0	5
HLD	28	96	2	96
TAP	28	192	3
TAP	28	288	2
TAP	28	288	3
TAP	28	336	2
TAP	28	336	3
TAP	29	48	3
TAP	29	48	4
TAP	29	144	4
TAP	29	144	5
STR	29	192	4
SI_	29	192	4	96	48	0
STR	29	192	5
SI_	29	192	5	96	48	0
XTP	29	288	4
XTP	29	288	5
XTP	30	0	1
STR	30	0	7
SI_	30	0	7	96	48	3
STR	30	96	2
SI_	30	96	2	96	48	5
BRK	30	96	7
TAP	30	192	2
TAP	30	192	4
HLD	30	264	6	72
STR	30	336	4
SI_	30	336	4	96	48	0
TAP	31	0	3
TAP	31	48	2
TAP	31	96	1
TAP	31	120	1
TAP	31	168	0
TAP	31	168	6
TAP	31	216	5
TAP	31	240	4
TAP	31	288	3
TAP	31	288	4
TAP	31	336	2
TAP	31	336	3
STR	32	0	1
SUR	32	0	1	96	48	5
TAP	32	96	0
TAP	32	96	1
TAP	32	144	7
TAP	32	192	4
TAP	32	192	6
TAP	32	240	5
TAP	32	264	4
TAP	32	312	2
TAP	32	336	3
TAP	33	0	2
TAP	33	0	3
BRK	33	48	0
BST	33	96	0
SCR	33	96	0	96	168	5
TTP	33	192	2	E	0	M1
TTP	33	240	3	E	0	M1
TTP	33	288	4	E	0	M1
TTP	33	336	5	E	0	M1
STR	34	0	6
SI_	34	0	6	96	48	2
STR	34	96	0
SI_	34	96	0	96	48	5
TAP	34	96	6
TAP	34	192	0
TAP	34	192	1
HLD	34	264	4	72
STR	34	336	3
SI_	34	336	3	96	48	7
TAP	35	0	2
TAP	35	48	1
TAP	35	96	0
TAP	35	120	0
TAP	35	168	1
TAP	35	168	7
TAP	35	216	2
TAP	35	240	3
TAP	35	288	4
TAP	35	288	5
TAP	35	336	6
STR	36	0	0
SI_	36	0	0	96	48	4
TAP	36	0	7
TAP	36	96	0
TAP	36	96	1
TAP	36	144	2
TAP	36	192	3
HLD	36	192	5	72
TAP	36	264	6
TAP	36	336	0
TAP	36	336	4
TAP	37	0	1
TAP	37	24	3
TAP	37	48	2
TAP	37	96	5
TAP	37	120	4
TAP	37	144	6
TAP	37	192	0
TAP	37	216	7
TAP	37	240	0
TAP	37	264	7
TAP	37	288	0
TAP	37	336	1
TAP	37	336	7
STR	38	0	6
SI_	38	0	6	96	48	3
TAP	38	48	3
TAP	38	96	6
TAP	38	144	0
HLD	38	192	1	48
XHO	38	192	3	48
XHO	38	264	3	48
HLD	38	264	4	48
TAP	38	336	4
XTP	38	336	6
XTP	39	0	4
TAP	39	0	6
TAP	39	48	2
TAP	39	72	3
TAP	39	96	1
TAP	39	144	6
TAP	39	168	7
TAP	39	192	6
TAP	39	240	0
TAP	39	240	5
TAP	39	288	1
TAP	39	288	4
TAP	39	336	2
TAP	39	336	3
TAP	40	0	6
TAP	40	24	4
TAP	40	48	6
TAP	40	72	4
TAP	40	96	5
TAP	40	120	3
TAP	40	144	4
TAP	40	168	2
TAP	40	192	3
TAP	40	240	0
TAP	40	264	7
TAP	40	312	1
TAP	40	312	6
STR	40	336	1
SSL	40	336	1	96	120	5
TAP	40	336	6
XTP	41	48	4
XTP	41	96	5
XTP	41	144	6
XST	41	192	7
SF_	41	192	7	96	24	3
TTP	41	288	2	B	0	M1
TTP	41	288	3	B	0	M1
TTP	41	288	4	B	0	M1
BRK	42	0	1
BRK	42	0	5
XTP	42	336	1
TAP	42	336	3
HLD	43	0	1	192
XTP	43	0	3
XTP	43	192	2
TAP	43	264	4
XTP	43	264	5
XTP	43	336	1
TAP	43	336	7
TAP	44	336	4
XTP	44	336	6
XTP	45	0	4
HLD	45	0	6	192
XTP	45	192	5
TAP	45	264	2
XTP	45	264	3
XTP	45	336	0
TAP	45	336	6
TAP	46	48	5
HLD	46	96	4	48
HLD	46	96	5	48
HLD	46	192	4	48
HLD	46	192	5	48
TAP	46	288	4
TAP	46	288	5
TAP	46	336	3
TAP	46	336	4
HLD	47	0	2	48
HLD	47	0	3	48
HLD	47	96	2	48
HLD	47	96	3	48
TAP	47	192	2
XTP	47	192	3
XTP	47	264	4
TAP	47	264	5
TAP	47	336	3
XTP	47	336	6
BRK	48	0	3
TAP	48	0	6
BRK	48	72	0
TAP	48	72	1
BRK	48	144	2
TAP	48	144	4
TAP	48	216	6
BRK	48	216	7
XTP	48	288	1
TAP	48	288	4
TAP	48	336	2
XTP	48	336	5
TAP	49	0	3
BRK	49	0	6
BRK	49	72	0
TAP	49	72	1
TAP	49	144	2
BRK	49	144	4
TAP	49	216	6
BRK	49	216	7
BRK	49	288	1
BRK	49	288	5
TAP	50	0	2
TAP	50	24	3
TAP	50	48	2
TAP	50	72	3
TAP	50	96	1
TAP	50	144	0
TAP	50	144	7
TAP	50	192	5
TAP	50	216	4
TAP	50	240	5
TAP	50	264	4
TAP	50	288	6
TAP	50	336	0
TAP	50	336	7
TAP	51	0	1
TAP	51	24	0
TAP	51	48	1
TAP	51	96	2
TAP	51	96	7
TAP	51	144	6
TAP	51	192	0
TAP	51	192	5
TAP	51	240	1
TAP	51	288	3
TAP	51	288	4
TAP	51	336	1
TAP	51	336	6
TAP	52	0	1
TAP	52	0	6
XTP	52	48	7
XTP	52	64	0
XTP	52	80	7
XTP	52	96	0
XTP	52	112	7
XTP	52	128	0
XTP	52	144	7
XTP	52	160	0
XTP	52	176	7
XTP	52	192	1
XTP	52	216	2
XTP	52	240	3
XTP	52	264	4
XTP	52	288	6
XTP	52	312	5
XTP	52	336	4
XTP	52	360	3
TAP	53	0	1
TAP	53	24	0
TAP	53	48	1
TAP	53	72	0
TAP	53	96	3
TAP	53	120	4
TAP	53	144	3
TAP	53	168	4
TAP	53	192	7
TAP	53	216	6
TAP	53	240	7
TAP	53	264	6
XST	53	288	0
SCL	53	288	0	96	144	2
BRK	54	0	5
XTP	54	192	1
TAP	54	192	3
TAP	54	240	6
TAP	54	288	3
TAP	54	288	5
TAP	54	336	1
TAP	55	0	4
TAP	55	0	6
TAP	55	48	5
TAP	55	96	1
TAP	55	96	3
TAP	55	144	2
TAP	55	192	5
TAP	55	216	4
TAP	55	240	5
TAP	55	264	4
STR	55	288	6
SI_	55	288	6	96	48	2
BRK	56	0	0
TAP	56	144	1
TAP	56	144	7
TAP	56	192	1
TAP	56	192	7
TAP	56	240	2
TAP	56	240	6
TAP	56	288	5
TAP	56	312	3
TAP	56	336	4
TAP	57	0	2
TAP	57	0	3
TAP	57	48	1
TAP	57	48	4
STR	57	96	0
SI_	57	96	0	96	48	4
TAP	57	144	1
TAP	57	144	7
BRK	57	192	0
STR	58	0	2
SI_	58	0	2	96	48	4
TAP	58	96	6
TAP	58	192	5
TAP	58	240	5
HLD	58	288	4	96
TAP	58	288	6
STR	59	0	5
SI_	59	0	5	96	48	3
TAP	59	96	2
XST	59	192	1
SI_	59	192	1	96	24	3
XST	59	192	5
SI_	59	192	5	96	24	7
STR	59	288	1
SI_	59	288	1	96	24	7
STR	59	288	5
SI_	59	288	5	96	24	3
BRK	60	0	1
BRK	60	0	5
TAP	60	144	0
TAP	60	192	1
TAP	60	240	2
STR	60	288	3
SI_	60	288	3	96	48	1
TAP	60	336	4
XST	61	0	5
SI_	61	0	5	96	48	3
TAP	61	48	5
XST	61	96	1
SI_	61	96	1	96	48	5
TAP	61	144	1
XTP	61	192	4
XTP	61	288	7
STR	62	0	1
SI_	62	0	1	96	48	7
TAP	62	0	3
TAP	62	96	4
TAP	62	192	5
TAP	62	240	4
HLD	62	288	3	96
TAP	62	288	5
STR	63	0	6
SI_	63	0	6	96	48	0
TAP	63	96	2
TAP	63	192	2
TAP	63	240	3
STR	63	288	1
SI_	63	288	1	96	48	4
STR	63	288	4
SI_	63	288	4	96	48	7
XTP	64	96	4
XTP	64	96	7
TAP	64	144	3
TAP	64	144	6
TAP	64	192	2
TAP	64	192	5
TAP	64	240	1
TAP	64	240	4
STR	64	288	0
SCR	64	288	0	96	192	7
TAP	64	288	3
TTP	65	0	0	C	1	M1
TAP	65	288	0
XTP	66	0	1
XTP	66	0	7
XTP	66	24	1
XTP	66	24	7
TAP	66	72	2
TAP	66	72	6
TAP	66	120	3
TAP	66	120	5
TAP	66	168	2
TAP	66	168	6
BRK	66	192	2
BRK	66	192	6
TAP	67	0	5
TAP	67	96	4
HLD	67	96	5	144
TTP	67	240	4	E	0	M1
TTP	67	288	3	E	0	M1
TAP	68	0	2
HLD	68	96	2	144
TAP	68	96	3
TTP	68	240	4	E	0	M1
TTP	68	288	5	E	0	M1
TAP	69	0	5
TAP	69	96	4
HLD	69	96	5	144
TTP	69	240	4	E	0	M1
TTP	69	288	3	E	0	M1
TAP	70	0	2
HLD	70	96	2	144
TAP	70	96	3
TAP	70	240	3
TAP	70	288	3
TAP	70	288	4
TAP	71	0	3
HLD	71	0	4	96
TTP	71	96	4	E	0	M1
TAP	71	192	3
HLD	71	192	5	96
TTP	71	288	4	E	0	M1
TAP	72	0	4
HLD	72	0	5	96
TTP	72	96	4	E	0	M1
TAP	72	192	4
HLD	72	192	5	96
TTP	72	288	4	E	0	M1
TAP	73	0	3
HLD	73	0	4	96
TTP	73	96	4	E	0	M1
STR	73	192	5
SI_	73	192	5	96	48	3
TAP	73	288	3
HLD	73	336	2	144
STR	74	192	4
SI_	74	192	4	96	48	1
STR	74	192	5
SI_	74	192	5	96	48	0
XTP	74	288	4
XTP	74	288	5
XST	75	0	0
SI_	75	0	0	96	48	4
XTP	75	0	7
BRK	75	96	0
STR	75	96	5
SI_	75	96	5	96	48	2
TAP	75	192	3
TAP	75	192	5
HLD	75	264	1	72
STR	75	336	0
SI_	75	336	0	96	48	4
TAP	76	0	7
TAP	76	48	6
TAP	76	96	5
TAP	76	120	5
TAP	76	168	3
TAP	76	168	4
TAP	76	216	2
TAP	76	240	3
TAP	76	288	1
TAP	76	288	3
TAP	76	336	0
STR	77	0	6
SUL	77	0	6	96	48	2
TAP	77	0	7
TAP	77	96	6
TAP	77	96	7
TAP	77	144	0
TAP	77	192	1
TAP	77	192	3
TAP	77	240	2
TAP	77	264	3
TAP	77	312	5
TAP	77	336	4
TAP	78	0	4
TAP	78	0	5
BRK	78	48	7
BST	78	96	7
SCL	78	96	7	96	168	2
TTP	78	192	6	E	0	M1
TTP	78	240	5	E	0	M1
TTP	78	288	0	C	0	M1
TTP	78	336	3	E	0	M1
XST	79	0	0
SF_	79	0	0	96	48	4
BRK	79	96	0
TAP	79	192	2
TAP	79	192	6
HLD	79	264	4	72
TAP	79	264	5
STR	79	336	3
SI_	79	336	3	96	48	7
TAP	80	0	2
TAP	80	48	1
TAP	80	96	0
TAP	80	120	0
TAP	80	168	1
TAP	80	168	7
TAP	80	216	2
TAP	80	240	3
TAP	80	288	4
TAP	80	288	5
TAP	80	336	6
STR	81	0	0
SI_	81	0	0	96	48	4
TAP	81	0	7
TAP	81	96	0
TAP	81	96	1
TAP	81	144	2
TAP	81	192	3
HLD	81	192	5	72
TAP	81	264	6
TAP	81	336	0
TAP	81	336	4
TAP	82	0	1
TAP	82	24	3
TAP	82	48	2
TAP	82	96	5
TAP	82	120	4
TAP	82	144	6
TAP	82	192	0
TAP	82	216	7
TAP	82	240	0
TAP	82	264	7
TAP	82	288	0
TAP	82	336	1
TAP	82	336	7
STR	83	0	6
SI_	83	0	6	96	48	3
TAP	83	48	3
TAP	83	96	6
TAP	83	144	0
HLD	83	192	1	48
XHO	83	192	3	48
XHO	83	264	3	48
HLD	83	264	4	48
XTP	83	336	4
XTP	83	336	6
TAP	84	0	3
TAP	84	0	7
TAP	84	48	1
TAP	84	72	0
TAP	84	96	2
TAP	84	144	6
TAP	84	168	7
TAP	84	192	5
TAP	84	240	0
TAP	84	240	4
TAP	84	288	0
TAP	84	288	4
TAP	84	336	0
TAP	84	336	4
TAP	85	0	1
TAP	85	24	3
TAP	85	48	1
TAP	85	72	3
TAP	85	96	2
TAP	85	120	4
TAP	85	144	3
TAP	85	168	5
TAP	85	192	4
TAP	85	240	7
TAP	85	264	0
TAP	85	312	2
TAP	85	336	3
TAP	86	0	6
TAP	86	24	4
TAP	86	48	6
TAP	86	72	4
TAP	86	96	5
TAP	86	120	3
TAP	86	144	4
TAP	86	168	2
TAP	86	192	3
TAP	86	240	0
TAP	86	264	7
TAP	86	312	5
TAP	86	336	4
TAP	87	0	1
TAP	87	24	0
TAP	87	48	2
TAP	87	72	7
TAP	87	96	3
TAP	87	120	6
TAP	87	144	4
TAP	87	168	5
TAP	87	192	4
TAP	87	240	2
TAP	87	264	3
TAP	87	312	0
TAP	87	312	5
BRK	87	336	0
BRK	87	336	5
TAP	88	0	1
TAP	88	0	6
TAP	88	48	2
TAP	88	48	7
STR	88	96	1
SI_	88	96	1	96	48	5
TAP	88	120	0
TAP	88	144	2
TAP	88	168	7
BRK	88	192	1

T_REC_TAP	476
T_REC_BRK	31
T_REC_XTP	71
T_REC_HLD	54
T_REC_XHO	4
T_REC_STR	64
T_REC_BST	4
T_REC_XST	8
T_REC_TTP	29
T_REC_THO	0
T_REC_SLD	77
T_REC_ALL	818
T_NUM_TAP	648
T_NUM_BRK	35
T_NUM_HLD	58
T_NUM_SLD	77
T_NUM_ALL	818
T_JUDGE_TAP	683
T_JUDGE_HLD	99
T_JUDGE_SLD	77
T_JUDGE_ALL	859
TTM_EACHPAIRS	186
TTM_SCR_TAP	324000
TTM_SCR_BRK	91000
TTM_SCR_HLD	58000
TTM_SCR_SLD	115500
TTM_SCR_ALL	588500
TTM_SCR_S	567450
TTM_SCR_SS	585000
TTM_RAT_ACV	10059

