VERSION	0.00.00	1.03.00
FES_MODE	0
BPM_DEF	145.000	145.000	145.000	145.000
MET_DEF	4	4
RESOLUTION	384
CLK_DEF	384
COMPATIBLE_CODE	MA2

BPM	0	0	145.000
MET	0	0	4	4

TAP	1	0	2
TAP	1	0	4
TAP	1	48	2
TAP	1	48	4
TAP	1	96	2
TAP	1	96	4
XHO	1	168	3	72
XHO	1	168	5	72
XTP	1	288	3
XTP	1	288	5
TAP	2	0	2
TAP	2	96	1
TAP	2	96	3
TAP	2	192	4
TAP	2	288	3
TAP	2	288	5
HLD	3	0	2	96
HLD	3	96	0	96
HLD	3	192	7	96
TAP	3	288	5
TAP	4	0	5
TAP	4	96	4
TAP	4	96	6
TAP	4	192	3
TAP	4	288	2
TAP	4	288	4
HLD	5	0	6	96
STR	5	96	4
SI_	5	96	4	96	96	0
TAP	6	0	6
TAP	6	96	6
XST	6	192	7
SI_	6	192	7	96	96	3
TAP	7	0	2
TAP	7	96	2
TAP	7	192	2
TAP	7	192	3
TAP	7	288	2
TAP	7	288	3
TAP	8	0	1
TAP	8	96	1
HLD	8	192	0	96
HLD	8	192	1	96
TAP	9	0	4
TAP	9	0	5
TAP	9	96	6
TAP	9	96	7
TAP	9	192	0
TAP	9	192	5
TAP	9	288	0
TAP	9	288	5
TAP	10	0	2
TAP	10	96	2
TAP	10	96	3
TAP	10	192	1
TAP	10	240	1
TAP	10	288	0
TAP	11	0	4
TAP	11	0	5
TAP	11	96	4
TAP	11	96	5
TAP	11	192	6
TAP	11	240	6
TAP	11	288	7
TAP	12	0	2
TAP	12	0	3
STR	12	96	1
SCR	12	96	1	96	96	4
HLD	12	192	5	192
XTP	13	0	4
TAP	13	96	3
TAP	13	96	6
TAP	13	192	2
TAP	13	288	1
TAP	13	288	3
HLD	14	0	4	96
HLD	14	96	5	96
HLD	14	192	6	96
TAP	14	288	7
TAP	14	336	7
TAP	15	48	0
TAP	15	48	6
TAP	15	144	1
TAP	15	144	7
TAP	15	192	1
TAP	15	192	7
TAP	15	288	2
TAP	15	288	6
HLD	16	0	4	48
HLD	16	0	5	48
HLD	16	96	2	48
HLD	16	96	3	48
HLD	16	192	4	48
HLD	16	192	5	48
TAP	16	288	2
TAP	16	288	3
STR	17	0	1
SI_	17	0	1	96	48	5
HLD	17	192	6	96
TAP	17	288	4
HLD	18	0	3	96
HLD	18	96	2	96
HLD	18	192	1	96
TAP	18	288	0
TAP	18	336	0
TAP	19	48	1
TAP	19	48	7
TAP	19	144	0
TAP	19	144	6
TAP	19	192	0
TAP	19	192	6
TAP	19	288	1
TAP	19	288	5
HLD	20	0	2	48
HLD	20	0	3	48
HLD	20	96	4	48
HLD	20	96	5	48
STR	20	192	2
SI_	20	192	2	96	48	0
STR	20	192	3
SI_	20	192	3	96	48	7
XTP	21	48	6
XTP	21	48	7
XTP	21	96	6
XTP	21	96	7
STR	21	192	0
SXL	21	192	0	96	240	4
TAP	22	288	4
TAP	22	288	6
TAP	23	0	4
TAP	23	0	6
TAP	23	72	3
TAP	23	72	5
HLD	23	144	2	96
TAP	23	144	4
TAP	23	240	3
TAP	23	288	3
HLD	24	0	5	96
HLD	24	96	7	96
HLD	24	192	0	96
HLD	24	288	2	96
TAP	25	0	5
TAP	25	96	3
TAP	25	96	4
TAP	25	192	3
TAP	25	192	4
STR	25	288	0
SI_	25	288	0	96	48	4
STR	25	288	7
SI_	25	288	7	96	48	3
HLD	26	192	2	96
TAP	26	288	3
HLD	27	0	5	96
TAP	27	96	4
TAP	27	192	3
TAP	27	288	2
TAP	27	288	3
TAP	28	0	0
TAP	28	0	1
TAP	28	96	6
TAP	28	96	7
STR	28	192	4
SI_	28	192	4	96	48	0
TAP	28	192	5
XHO	29	48	7	96
XTP	29	144	0
XTP	29	192	0
BRK	29	288	1
BRK	29	288	6
STR	30	0	6
SI_	30	0	6	96	48	3
STR	30	0	7
SI_	30	0	7	96	48	2
HLD	30	192	1	72
HLD	30	264	2	72
TAP	30	336	3
TAP	31	48	4
TAP	31	48	5
STR	31	96	4
SI_	31	96	4	96	48	0
HLD	31	96	5	72
TAP	31	336	6
TAP	32	0	6
TAP	32	96	0
TAP	32	96	7
HLD	32	192	0	72
HLD	32	264	1	72
TAP	32	336	2
TAP	33	48	2
TAP	33	48	3
TAP	33	96	2
TAP	33	96	3
TAP	33	192	4
TAP	33	192	5
TAP	33	288	7
STR	34	0	0
SI_	34	0	0	96	48	5
STR	34	0	1
SI_	34	0	1	96	48	4
HLD	34	192	6	72
HLD	34	264	5	72
TAP	34	336	4
TAP	35	48	2
TAP	35	48	3
HLD	35	96	2	72
STR	35	96	3
SI_	35	96	3	96	48	7
TAP	35	336	1
TAP	36	0	1
TAP	36	96	0
TAP	36	96	7
HLD	36	192	6	72
HLD	36	264	5	72
TAP	36	336	4
TAP	37	0	4
TAP	37	96	1
TAP	37	96	3
TAP	37	192	4
TAP	37	192	6
TAP	37	288	1
TAP	37	336	1
TAP	38	0	3
TAP	38	96	0
TAP	38	96	7
HLD	38	192	1	72
HLD	38	264	2	72
TAP	38	336	3
TAP	39	0	3
TAP	39	96	4
TAP	39	96	6
TAP	39	192	1
TAP	39	192	3
TAP	39	288	0
TAP	39	336	0
TAP	40	0	6
TAP	40	48	6
TAP	40	96	1
TAP	40	144	1
TAP	40	192	1
TAP	40	192	7
TAP	40	264	3
TAP	40	264	5
TAP	40	336	2
TAP	40	336	6
XTP	41	48	5
XTP	41	96	4
XTP	41	144	3
XHO	41	192	2	96
XTP	41	288	3
TTP	42	0	0	C	1	M1
TTP	42	0	4	B	0	M1
TTP	42	0	5	B	0	M1
TTP	42	0	6	B	0	M1
TTP	42	0	6	E	0	M1
TTP	42	336	0	E	0	M1
TTP	43	0	0	C	1	M1
TTP	43	0	1	B	0	M1
TTP	43	0	2	B	0	M1
TTP	43	0	2	E	0	M1
TTP	43	0	3	B	0	M1
THO	43	192	0	72	C	0	M1
TTP	43	192	4	B	0	M1
TTP	43	192	5	B	0	M1
TTP	43	336	0	C	1	M1
TTP	43	336	1	B	0	M1
TTP	43	336	2	B	0	M1
TTP	43	336	2	E	0	M1
TTP	43	336	3	B	0	M1
TTP	44	336	0	E	0	M1
TTP	45	0	0	C	1	M1
TTP	45	0	4	B	0	M1
TTP	45	0	5	B	0	M1
TTP	45	0	6	B	0	M1
TTP	45	0	6	E	0	M1
THO	45	192	0	72	C	0	M1
TTP	45	192	2	B	0	M1
TTP	45	192	3	B	0	M1
TTP	45	336	0	C	1	M1
TTP	45	336	4	B	0	M1
TTP	45	336	5	B	0	M1
TTP	45	336	6	B	0	M1
TTP	45	336	6	E	0	M1
TAP	46	96	7
TAP	46	192	7
TAP	46	288	4
TAP	46	288	6
TAP	46	336	4
TAP	46	336	6
TAP	47	0	4
TAP	47	0	6
TAP	47	96	0
TAP	47	192	1
TAP	47	192	3
TAP	47	264	3
TAP	47	264	4
TAP	47	336	4
TAP	47	336	6
HLD	48	0	6	72
HLD	48	72	5	72
HLD	48	144	4	72
HLD	48	216	3	72
TAP	48	288	2
HLD	49	0	1	72
HLD	49	72	2	72
HLD	49	144	3	72
HLD	49	216	4	72
TAP	49	288	5
TAP	50	0	6
TAP	50	48	6
TAP	50	96	0
TAP	50	144	0
TAP	50	192	7
TAP	50	240	7
TAP	50	288	1
TAP	51	0	0
TAP	51	0	1
TAP	51	96	4
TAP	51	96	6
TAP	51	192	2
TAP	51	192	3
STR	51	288	1
SLR	51	288	1	96	96	5
TAP	51	288	4
HLD	52	192	6	96
TAP	52	288	4
TAP	53	0	3
TAP	53	48	3
TAP	53	96	4
TAP	53	144	3
TAP	53	192	2
TAP	53	288	1
STR	53	288	5
SCR	53	288	5	96	192	2
XTP	54	288	3
XTP	54	288	4
TAP	55	0	5
TAP	55	48	5
TAP	55	96	4
TAP	55	144	6
TAP	55	192	2
TAP	55	240	2
STR	55	288	3
SI_	55	288	3	96	48	7
XTP	56	144	0
STR	56	192	0
SI_	56	192	0	96	48	4
TAP	57	0	6
STR	57	96	7
SCR	57	96	7	96	192	5
HLD	58	0	1	96
TAP	58	96	0
TAP	58	192	4
TAP	58	240	4
TAP	58	288	3
TAP	58	288	5
HLD	59	0	6	96
TAP	59	96	7
TAP	59	192	3
TAP	59	240	3
STR	59	288	2
SI_	59	288	2	96	48	7
STR	59	288	4
SI_	59	288	4	96	48	7
TAP	60	144	0
TAP	60	192	0
HLD	60	288	1	96
TAP	60	288	7
HLD	61	0	3	96
HLD	61	96	4	96
HLD	61	192	6	96
TAP	61	288	2
HLD	62	0	1	96
TAP	62	96	3
TAP	62	192	4
TAP	62	240	4
TAP	62	288	3
TAP	62	288	5
HLD	63	0	6	96
TAP	63	96	4
TAP	63	192	3
TAP	63	240	3
TAP	63	288	2
STR	63	288	4
SCR	63	288	4	96	96	7
TAP	64	144	0
TAP	64	192	0
TAP	64	288	2
STR	64	288	6
SUL	64	288	6	96	240	4
TAP	66	0	3
TAP	66	24	4
XTP	66	72	2
XTP	66	72	5
XTP	66	120	2
XTP	66	120	5
XHO	66	168	2	120
XHO	66	168	5	120
HLD	67	0	6	768
TTP	67	96	4	B	0	M1
TTP	67	288	3	B	0	M1
TTP	68	96	4	E	0	M1
TTP	68	288	4	B	0	M1
HLD	69	0	1	768
TTP	69	96	3	B	0	M1
TTP	69	288	4	B	0	M1
TTP	70	96	4	E	0	M1
TTP	70	288	3	B	0	M1
HLD	71	0	5	768
TTP	71	96	4	B	0	M1
TTP	71	288	3	B	0	M1
TTP	72	96	4	E	0	M1
TTP	72	288	4	B	0	M1
HLD	73	0	2	288
TTP	73	96	3	B	0	M1
XTP	73	288	4
XHO	73	336	4	240
TAP	74	192	3
BRK	74	288	1
BRK	74	288	6
STR	75	0	0
SI_	75	0	0	96	48	5
STR	75	0	1
SI_	75	0	1	96	48	4
HLD	75	192	6	72
HLD	75	264	5	72
TAP	75	336	4
TAP	76	48	2
TAP	76	48	3
HLD	76	96	2	72
STR	76	96	3
SI_	76	96	3	96	48	7
TAP	76	336	0
TAP	76	336	1
TAP	77	0	0
TAP	77	0	1
TAP	77	96	7
TAP	77	144	7
HLD	77	192	0	72
HLD	77	264	1	72
TAP	77	336	2
TAP	78	48	4
TAP	78	48	5
TAP	78	96	4
TAP	78	96	5
TAP	78	192	3
TAP	78	192	4
STR	78	288	0
SI_	78	288	0	96	48	4
STR	78	288	7
SI_	78	288	7	96	48	3
BRK	79	96	0
BRK	79	96	7
HLD	79	192	1	72
HLD	79	264	2	72
TAP	79	336	3
TAP	80	48	4
TAP	80	48	5
STR	80	96	4
SI_	80	96	4	96	48	0
HLD	80	96	5	72
TAP	80	336	6
TAP	80	336	7
TAP	81	0	6
TAP	81	0	7
TAP	81	96	0
TAP	81	96	7
TAP	81	144	0
TAP	81	144	7
HLD	81	192	1	72
HLD	81	264	2	72
TAP	81	336	3
TAP	82	0	3
TAP	82	96	4
TAP	82	96	6
TAP	82	192	1
TAP	82	192	3
TAP	82	288	6
TAP	82	336	6
TAP	83	0	4
TAP	83	96	0
TAP	83	96	7
HLD	83	192	6	72
HLD	83	264	5	72
TAP	83	336	4
TAP	84	0	4
TAP	84	96	1
TAP	84	96	3
TAP	84	192	4
TAP	84	192	6
TAP	84	288	7
TAP	84	336	7
TAP	85	0	0
TAP	85	48	0
TAP	85	96	6
TAP	85	144	6
TAP	85	192	1
TAP	85	192	7
TAP	85	240	1
TAP	85	240	7
TAP	85	336	2
TAP	86	0	2
TAP	86	48	3
TAP	86	96	4
TAP	86	144	4
TAP	86	192	3
TAP	86	192	5
TAP	86	240	3
TAP	86	240	5
TAP	86	336	6
TAP	87	0	6
TAP	87	48	7
TAP	87	96	0
TAP	87	144	0
TAP	87	192	0
TAP	87	192	6
TAP	87	264	2
TAP	87	264	4
TAP	87	336	1
TAP	87	336	5
XTP	88	48	2
XTP	88	96	3
XTP	88	144	4
XTP	88	192	5

T_REC_TAP	301
T_REC_BRK	6
T_REC_XTP	25
T_REC_HLD	76
T_REC_XHO	7
T_REC_STR	30
T_REC_BST	0
T_REC_XST	1
T_REC_TTP	44
T_REC_THO	2
T_REC_SLD	31
T_REC_ALL	523
T_NUM_TAP	401
T_NUM_BRK	6
T_NUM_HLD	85
T_NUM_SLD	31
T_NUM_ALL	523
T_JUDGE_TAP	407
T_JUDGE_HLD	213
T_JUDGE_SLD	31
T_JUDGE_ALL	651
TTM_EACHPAIRS	120
TTM_SCR_TAP	200500
TTM_SCR_BRK	15600
TTM_SCR_HLD	85000
TTM_SCR_SLD	46500
TTM_SCR_ALL	347600
TTM_SCR_S	336600
TTM_SCR_SS	347000
TTM_RAT_ACV	10017

