VERSION	0.00.00	1.03.00
FES_MODE	0
BPM_DEF	145.000	145.000	145.000	145.000
MET_DEF	4	4
RESOLUTION	384
CLK_DEF	384
COMPATIBLE_CODE	MA2

BPM	0	0	145.000
MET	0	0	4	4

TAP	2	0	2
TAP	2	192	2
TAP	3	0	3
TAP	3	192	3
TAP	4	0	5
TAP	4	192	5
TAP	5	0	4
TAP	5	192	4
TAP	6	0	2
TAP	6	96	2
TAP	6	192	2
TAP	7	0	2
TAP	7	96	2
TAP	7	192	2
TAP	7	192	3
TAP	8	0	5
TAP	8	96	5
TAP	8	192	5
TAP	9	0	5
TAP	9	96	5
TAP	9	192	4
TAP	9	192	5
TAP	10	0	6
TAP	10	96	6
TAP	10	192	6
TAP	11	0	6
TAP	11	96	6
TAP	11	192	6
TAP	11	192	7
TAP	12	0	1
TAP	12	96	1
TAP	12	192	1
TAP	13	0	1
TAP	13	96	1
TAP	13	192	0
TAP	13	192	1
STR	14	0	7
SI_	14	0	7	96	192	3
XTP	15	0	2
XTP	15	96	2
XTP	15	192	2
STR	16	0	1
SI_	16	0	1	96	192	5
TAP	17	0	6
TAP	17	192	6
TAP	17	192	7
STR	18	0	0
SI_	18	0	0	96	192	4
XTP	19	0	5
XTP	19	96	5
XTP	19	192	5
STR	20	0	6
SI_	20	0	6	96	192	2
TAP	21	0	1
TAP	21	192	0
TAP	21	192	1
HLD	22	0	2	192
HLD	22	192	3	192
HLD	23	0	4	192
TAP	23	192	5
TAP	24	0	6
TAP	24	96	6
TAP	24	192	7
TAP	24	288	7
HLD	25	0	6	192
TAP	25	192	7
HLD	26	0	5	192
HLD	26	192	4	192
HLD	27	0	3	192
HLD	27	192	2	192
HLD	28	0	1	192
TAP	28	192	0
TAP	29	0	0
TAP	29	0	7
TAP	29	96	0
TAP	29	96	7
BRK	29	192	0
BRK	29	192	7
TAP	30	0	6
TAP	30	96	6
TAP	30	192	7
TAP	30	288	7
TAP	31	0	0
TAP	31	96	0
TAP	31	192	0
TAP	31	192	1
TAP	32	0	2
TAP	32	96	3
TAP	32	192	4
TAP	32	192	5
STR	32	288	4
SI_	32	288	4	96	192	1
STR	32	288	5
SI_	32	288	5	96	192	0
TAP	34	0	1
TAP	34	96	1
TAP	34	192	0
TAP	34	288	0
TAP	35	0	7
TAP	35	96	7
TAP	35	192	6
TAP	35	192	7
TAP	36	0	5
TAP	36	96	4
TAP	36	192	2
TAP	36	192	3
STR	36	288	2
SI_	36	288	2	96	192	7
STR	36	288	3
SI_	36	288	3	96	192	6
TAP	38	0	5
TAP	38	96	5
TAP	38	192	3
TAP	38	192	4
STR	38	288	3
SI_	38	288	3	96	192	0
STR	38	288	4
SI_	38	288	4	96	192	7
TAP	40	0	0
TAP	40	96	0
TAP	40	192	7
TAP	40	288	7
BRK	41	0	0
BRK	41	0	7
STR	42	0	0
SCL	42	0	0	96	240	5
STR	42	0	1
SCR	42	0	1	96	240	4
XTP	43	192	4
XTP	43	192	5
STR	44	0	6
SCL	44	0	6	96	240	3
STR	44	0	7
SCR	44	0	7	96	240	2
XTP	45	192	2
XTP	45	192	3
STR	46	0	1
SI_	46	0	1	96	192	4
STR	47	0	6
SI_	47	0	6	96	192	3
XST	48	0	1
SI_	48	0	1	96	192	5
XST	49	0	6
SI_	49	0	6	96	192	2
TAP	50	0	1
TAP	50	96	1
TAP	50	192	2
TAP	50	288	2
TAP	51	0	3
TAP	51	96	4
TAP	51	192	5
TAP	52	0	6
TAP	52	96	6
TAP	52	192	5
TAP	52	288	5
TAP	53	0	4
TAP	53	96	3
TAP	53	192	2
TAP	54	0	1
TAP	54	96	1
TAP	54	192	0
TAP	54	288	0
TAP	55	0	7
TAP	55	96	6
TAP	55	192	5
TAP	56	0	6
TAP	56	96	6
TAP	56	192	7
TAP	56	288	7
TAP	57	0	0
TAP	57	96	1
XTP	57	192	2
HLD	58	0	1	192
HLD	58	192	2	192
HLD	59	0	3	192
HLD	59	192	4	192
HLD	60	0	5	192
HLD	60	192	6	192
TAP	61	0	7
TAP	61	192	0
TAP	61	192	7
HLD	62	0	6	192
HLD	62	192	5	192
HLD	63	0	4	192
HLD	63	192	3	192
HLD	64	0	2	192
HLD	64	192	1	192
STR	65	0	0
SSL	65	0	0	96	288	4
TTP	67	0	1	B	0	L1
TTP	67	192	2	B	0	L1
TTP	68	0	3	B	0	L1
TTP	68	192	4	B	0	L1
TTP	69	0	5	B	0	L1
TTP	69	192	6	B	0	L1
TTP	70	0	7	B	0	L1
TTP	71	0	7	E	0	L1
TTP	71	192	6	E	0	L1
TTP	72	0	5	E	0	L1
TTP	72	192	4	E	0	L1
TTP	73	0	3	E	0	L1
TTP	73	192	2	E	0	L1
TTP	74	0	1	E	0	L1
TAP	75	0	2
TAP	75	96	1
TAP	75	192	0
TAP	75	288	7
TAP	76	0	6
TAP	76	96	5
TAP	76	192	3
TAP	76	192	4
TAP	77	0	2
TAP	77	96	2
TAP	77	192	2
TAP	77	192	3
STR	77	288	2
SI_	77	288	2	96	192	7
STR	77	288	3
SI_	77	288	3	96	192	6
TAP	79	0	5
TAP	79	96	6
TAP	79	192	7
TAP	79	288	0
TAP	80	0	1
TAP	80	96	2
TAP	80	192	3
TAP	80	192	4
TAP	81	0	5
TAP	81	96	5
TAP	81	192	4
TAP	81	192	5
STR	81	288	4
SI_	81	288	4	96	192	1
STR	81	288	5
SI_	81	288	5	96	192	0
TAP	83	0	2
TAP	83	96	2
TAP	83	192	3
TAP	83	192	4
STR	83	288	3
SI_	83	288	3	96	192	0
STR	83	288	4
SI_	83	288	4	96	192	7
TAP	85	0	6
TAP	85	96	6
TAP	85	192	5
TAP	85	288	5
TAP	86	0	4
TAP	86	96	4
TAP	86	192	3
TAP	86	288	3
TAP	87	0	2
TAP	87	96	2
TAP	87	192	1
TAP	87	288	1
TAP	88	0	0
TAP	88	0	7
TAP	88	96	0
TAP	88	96	7
BRK	88	192	1
BRK	88	192	6

T_REC_TAP	159
T_REC_BRK	6
T_REC_XTP	11
T_REC_HLD	21
T_REC_XHO	0
T_REC_STR	23
T_REC_BST	0
T_REC_XST	2
T_REC_TTP	14
T_REC_THO	0
T_REC_SLD	25
T_REC_ALL	261
T_NUM_TAP	209
T_NUM_BRK	6
T_NUM_HLD	21
T_NUM_SLD	25
T_NUM_ALL	261
T_JUDGE_TAP	215
T_JUDGE_HLD	84
T_JUDGE_SLD	25
T_JUDGE_ALL	324
TTM_EACHPAIRS	34
TTM_SCR_TAP	104500
TTM_SCR_BRK	15600
TTM_SCR_HLD	21000
TTM_SCR_SLD	37500
TTM_SCR_ALL	178600
TTM_SCR_S	172700
TTM_SCR_SS	178000
TTM_RAT_ACV	10033

