VERSION	0.00.00	1.03.00
FES_MODE	0
BPM_DEF	145.000	145.000	145.000	145.000
MET_DEF	4	4
RESOLUTION	384
CLK_DEF	384
COMPATIBLE_CODE	MA2

BPM	0	0	145.000
MET	0	0	4	4

XTP	2	0	0
TAP	3	0	0
TAP	4	0	7
TAP	5	0	7
TAP	6	0	0
TAP	6	192	0
TAP	7	0	1
TAP	8	0	2
TAP	8	192	2
TAP	9	0	3
TAP	10	0	4
TAP	10	192	4
TAP	11	0	5
TAP	12	0	6
TAP	12	192	6
TAP	13	0	0
TAP	13	0	7
STR	14	0	7
SI_	14	0	7	96	288	4
STR	16	0	0
SI_	16	0	0	96	288	3
STR	18	0	7
SI_	18	0	7	96	288	3
STR	20	0	0
SI_	20	0	0	96	288	4
TTP	22	0	5	B	0	L1
TTP	23	0	6	B	0	L1
TTP	24	0	7	B	0	L1
TTP	25	0	0	B	0	L1
TTP	26	0	1	B	0	L1
TTP	27	0	2	B	0	L1
TTP	28	0	3	B	0	L1
TTP	29	0	0	C	1	L1
TAP	30	0	7
TAP	30	96	7
TAP	30	192	7
TAP	31	0	6
TAP	31	192	6
TAP	32	0	5
TAP	32	96	5
TAP	32	192	5
TAP	33	0	4
TAP	33	192	3
TAP	33	192	4
TAP	34	0	3
TAP	34	96	3
TAP	34	192	3
TAP	35	0	2
TAP	35	192	2
TAP	36	0	1
TAP	36	96	1
TAP	36	192	1
TAP	37	0	0
TAP	37	0	7
TAP	38	0	1
TAP	38	96	1
TAP	38	192	1
TAP	39	0	0
TAP	39	0	1
TAP	39	192	0
TAP	39	192	1
TAP	40	0	7
TAP	40	96	7
TAP	40	192	7
XTP	41	0	6
XTP	41	0	7
HLD	42	0	0	384
HLD	42	0	1	384
HLD	44	0	2	384
HLD	44	0	3	384
HLD	46	0	4	384
HLD	46	0	5	384
HLD	48	0	6	384
HLD	48	0	7	384
TAP	50	0	6
TAP	50	96	6
TAP	50	192	6
TAP	51	0	6
TAP	51	0	7
TAP	52	0	5
TAP	52	96	5
TAP	52	192	5
TAP	53	0	4
TAP	53	0	5
TAP	54	0	2
TAP	54	96	2
TAP	54	192	2
TAP	55	0	2
TAP	55	0	3
TAP	56	0	1
TAP	56	96	1
TAP	56	192	1
TAP	57	0	0
TAP	57	0	1
STR	58	0	7
SI_	58	0	7	96	288	4
STR	60	0	3
SI_	60	0	3	96	288	0
STR	62	0	7
SI_	62	0	7	96	288	4
STR	64	0	3
SI_	64	0	3	96	288	0
BRK	66	0	7
TTP	67	0	0	B	0	L1
TTP	68	0	7	B	0	L1
TTP	69	0	1	B	0	L1
TTP	70	0	6	B	0	L1
TTP	71	0	2	B	0	L1
TTP	72	0	5	B	0	L1
TTP	73	0	3	B	0	L1
TTP	73	0	4	B	0	L1
TTP	74	0	0	C	0	L1
BRK	75	0	0
TAP	75	96	0
TAP	75	192	0
TAP	76	0	1
TAP	76	96	1
TAP	76	192	1
TAP	77	0	2
TAP	77	96	2
TAP	77	192	2
TAP	78	0	3
TAP	78	0	4
TAP	78	192	3
TAP	78	192	4
TAP	79	0	4
TAP	79	96	4
TAP	79	192	4
TAP	80	0	5
TAP	80	96	5
TAP	80	192	5
TAP	81	0	6
TAP	81	96	6
TAP	81	192	6
TAP	82	0	0
TAP	82	0	7
TAP	83	0	1
TAP	83	96	1
TAP	83	192	1
TAP	84	0	0
TAP	84	0	1
TAP	84	192	0
TAP	84	192	1
TAP	85	0	7
TAP	85	96	7
TAP	85	192	7
TAP	86	0	6
TAP	86	0	7
TAP	86	192	6
TAP	86	192	7
TAP	87	0	0
TAP	87	96	0
TAP	87	192	0
TAP	88	0	0
TAP	88	0	7
TAP	88	96	0
TAP	88	96	7
BRK	88	192	0
BRK	88	192	7

T_REC_TAP	111
T_REC_BRK	4
T_REC_XTP	3
T_REC_HLD	8
T_REC_XHO	0
T_REC_STR	8
T_REC_BST	0
T_REC_XST	0
T_REC_TTP	17
T_REC_THO	0
T_REC_SLD	8
T_REC_ALL	159
T_NUM_TAP	139
T_NUM_BRK	4
T_NUM_HLD	8
T_NUM_SLD	8
T_NUM_ALL	159
T_JUDGE_TAP	143
T_JUDGE_HLD	64
T_JUDGE_SLD	8
T_JUDGE_ALL	215
TTM_EACHPAIRS	24
TTM_SCR_TAP	69500
TTM_SCR_BRK	10400
TTM_SCR_HLD	8000
TTM_SCR_SLD	12000
TTM_SCR_ALL	99900
TTM_SCR_S	96550
TTM_SCR_SS	99500
TTM_RAT_ACV	10040

