VERSION	0.00.00	1.03.00
FES_MODE	0
BPM_DEF	203.000	203.000	203.000	203.000
MET_DEF	4	4
RESOLUTION	384
CLK_DEF	384
COMPATIBLE_CODE	MA2

BPM	0	0	203.000
MET	0	0	4	4

HLD	1	0	3	336
HLD	1	336	4	336
STR	2	288	3
SCR	2	288	3	96	192	5
HLD	3	0	2	336
HLD	3	336	5	288
TAP	4	240	4
TAP	4	288	3
TAP	4	288	4
HLD	5	0	1	192
HLD	5	192	0	192
HLD	6	0	7	192
HLD	6	192	6	192
HLD	7	0	5	240
HLD	7	240	6	48
HLD	7	288	7	384
HLD	7	336	0	336
HLD	9	0	4	192
TAP	9	96	5
HLD	9	192	5	192
TAP	9	288	6
HLD	10	0	6	192
TAP	10	96	7
HLD	10	192	7	192
TAP	10	288	0
HLD	11	0	0	240
TAP	11	240	7
TAP	11	288	0
HLD	11	336	1	336
HLD	11	336	6	336
XTP	13	0	0
XTP	13	0	7
TAP	13	48	1
TAP	13	96	2
TAP	13	96	3
TAP	13	192	4
TAP	13	192	6
TAP	13	288	1
TAP	13	288	3
TAP	14	0	4
TAP	14	0	5
TAP	14	48	4
TAP	14	48	5
TAP	14	144	6
TAP	14	144	7
TAP	14	240	0
STR	14	240	1
SCR	14	240	1	96	240	0
TAP	14	336	5
TAP	15	288	2
TAP	15	288	3
TTP	16	0	5	B	0	M1
TTP	16	48	6	B	0	M1
TTP	16	96	7	B	0	M1
TTP	16	144	0	B	0	M1
TTP	16	192	1	B	0	M1
TTP	16	240	2	B	0	M1
XTP	17	0	6
XTP	17	0	7
TAP	17	48	5
TAP	17	96	1
TAP	17	96	4
TAP	17	192	3
TAP	17	192	6
TAP	17	288	2
TAP	17	288	4
TAP	18	0	0
TAP	18	0	1
TAP	18	48	0
TAP	18	48	1
TAP	18	144	1
TAP	18	144	3
TAP	18	240	4
TAP	18	240	6
TAP	18	336	6
STR	18	336	7
SCR	18	336	7	96	144	3
TAP	19	48	4
TAP	19	96	4
TAP	19	192	5
TAP	19	288	4
TAP	19	288	5
HLD	20	0	3	96
TAP	20	96	5
TAP	20	144	5
HLD	20	192	6	96
TAP	20	288	4
TAP	21	0	3
TAP	21	0	5
TAP	21	48	2
TAP	21	96	0
TAP	21	96	1
TAP	21	192	6
TAP	21	192	7
TAP	21	240	6
TAP	21	240	7
TAP	21	336	3
TAP	21	336	5
TAP	22	48	0
TAP	22	48	1
TAP	22	144	4
TAP	22	144	6
TAP	22	240	2
STR	22	240	4
SCR	22	240	4	96	240	3
HLD	22	336	0	240
TAP	23	288	4
TAP	23	288	6
TAP	23	336	4
TAP	23	336	6
TAP	24	48	3
TAP	24	48	5
TAP	24	96	3
TAP	24	96	5
TAP	24	192	2
TAP	24	240	3
TAP	24	288	1
TAP	24	288	4
TAP	25	0	0
TAP	25	0	7
TAP	25	96	3
TAP	25	96	5
TAP	25	144	2
TAP	25	192	1
TAP	25	192	3
TAP	25	288	4
TAP	25	288	6
TAP	26	0	0
TAP	26	0	1
TAP	26	48	2
TAP	26	96	3
TAP	26	96	4
TAP	26	192	6
TAP	26	192	7
TAP	26	288	3
TAP	26	288	5
TAP	26	336	3
STR	26	336	5
SCR	26	336	5	96	144	2
TAP	27	48	4
TAP	27	96	4
TAP	27	192	3
TAP	27	288	2
TAP	27	288	5
BRK	28	0	0
BRK	28	0	7
XTP	28	96	5
TAP	28	120	4
TAP	28	144	5
TAP	28	168	4
XTP	28	192	3
XTP	28	192	6
XTP	28	288	2
TAP	28	312	3
TAP	28	336	2
TAP	28	360	3
XTP	29	0	1
XTP	29	0	4
XTP	29	96	0
XTP	29	96	7
TAP	29	192	4
TAP	29	192	6
TAP	29	240	3
TAP	29	240	5
HLD	29	336	1	384
TAP	29	336	3
TTP	30	96	6	B	0	M1
TTP	30	96	7	E	0	M1
TTP	30	192	5	B	0	M1
TTP	30	240	4	B	0	M1
TTP	30	336	3	B	0	M1
TTP	30	336	3	E	0	M1
XTP	31	96	0
XTP	31	96	7
TAP	31	192	1
TAP	31	192	3
TAP	31	240	2
TAP	31	240	4
TAP	31	336	4
HLD	31	336	6	384
TTP	32	96	1	B	0	M1
TTP	32	96	1	E	0	M1
TTP	32	192	2	B	0	M1
TTP	32	240	3	B	0	M1
TTP	32	336	4	B	0	M1
TTP	32	336	5	E	0	M1
XTP	33	96	0
XTP	33	96	7
TAP	33	192	4
TAP	33	192	6
TAP	33	240	3
TAP	33	240	5
HLD	33	336	1	336
TAP	33	336	3
TAP	34	48	4
TAP	34	96	4
TAP	34	192	5
TAP	34	288	6
XTP	35	0	0
XST	35	0	7
SCL	35	0	7	96	96	3
STR	35	96	3
SCL	35	96	3	96	96	7
STR	35	192	7
SCL	35	192	7	96	96	3
STR	35	288	3
SF_	35	288	3	96	96	7
BRK	36	192	1
BRK	36	192	5
HLD	37	0	6	144
TAP	37	144	7
TAP	37	192	6
TAP	37	288	0
TAP	37	288	4
HLD	38	0	1	144
TAP	38	144	0
TAP	38	192	1
STR	38	288	3
SXR	38	288	3	96	384	7
TAP	38	288	6
BRK	39	0	7
TAP	39	96	7
TAP	39	192	6
TAP	39	288	6
TAP	40	0	5
TAP	40	96	5
TAP	40	192	4
TAP	40	192	5
TAP	40	288	3
TAP	41	0	2
TAP	41	0	3
TAP	41	96	1
TAP	41	192	0
TAP	41	288	7
HLD	42	0	6	192
STR	42	192	4
SXL	42	192	4	96	480	0
TAP	42	288	3
BRK	42	336	3
TAP	43	96	1
TAP	43	192	1
TAP	43	288	2
TAP	44	0	2
TAP	44	96	3
TAP	44	192	3
TAP	44	192	4
TAP	44	288	5
TAP	45	0	3
TAP	45	0	5
TAP	45	96	4
TAP	45	96	6
TAP	45	144	4
TAP	45	192	5
TAP	45	240	4
TAP	45	288	3
TAP	45	288	6
TAP	46	0	2
TAP	46	0	4
TAP	46	96	1
TAP	46	96	3
TAP	46	144	3
TAP	46	192	2
TAP	46	240	3
STR	46	288	1
SXR	46	288	1	96	384	6
TAP	46	288	4
BRK	47	0	6
TAP	47	96	6
TAP	47	192	5
TAP	47	288	5
TAP	48	0	4
TAP	48	96	4
TAP	48	192	3
TAP	48	192	4
TAP	48	288	3
TAP	48	288	4
TAP	49	0	2
TAP	49	0	5
TAP	49	96	4
TAP	49	96	6
TAP	49	144	5
TAP	49	192	1
TAP	49	192	3
TAP	49	240	2
TAP	49	288	3
TAP	49	288	4
HLD	50	0	6	144
HLD	50	0	7	144
STR	50	192	4
SI_	50	192	4	96	48	1
STR	50	192	5
SI_	50	192	5	96	48	0
TAP	50	288	4
TAP	50	288	5
XTP	51	0	1
TAP	51	48	5
TAP	51	96	3
TAP	51	120	3
TAP	51	144	4
TAP	51	192	6
TAP	51	240	4
TAP	51	240	5
TAP	51	336	3
TAP	51	336	4
XTP	52	0	2
XTP	52	0	5
XST	52	48	0
SI_	52	48	0	96	48	4
XST	52	48	7
SI_	52	48	7	96	48	3
XTP	52	144	0
XTP	52	144	7
TTP	52	148	0	C	1	M1
BRK	52	288	1
TAP	52	312	6
BRK	52	336	1
TAP	52	360	6
XTP	53	0	1
TAP	53	48	0
TAP	53	48	4
TAP	53	96	5
TAP	53	144	3
TAP	53	144	6
TAP	53	192	2
TAP	53	240	1
TAP	53	240	7
TAP	53	288	6
XTP	53	336	3
XTP	53	336	5
TAP	54	0	4
XTP	54	48	3
XTP	54	48	5
TAP	54	96	4
XTP	54	144	3
XTP	54	144	5
TAP	54	192	2
TAP	54	240	1
TAP	54	240	6
TAP	54	288	0
TAP	54	312	7
TAP	54	336	0
TAP	54	360	7
TAP	55	0	0
TAP	55	48	1
TAP	55	48	4
TAP	55	96	5
TAP	55	144	2
TAP	55	144	6
TAP	55	192	3
TAP	55	240	4
TAP	55	240	5
TAP	55	288	6
XTP	55	336	1
XTP	55	336	7
TAP	56	0	0
XTP	56	48	1
XTP	56	48	7
TAP	56	96	0
XTP	56	144	1
XTP	56	144	7
TAP	56	192	2
TAP	56	240	3
TAP	56	240	5
TAP	56	288	6
TAP	56	312	7
TAP	56	336	6
TAP	56	360	7
XTP	57	0	6
TAP	57	48	5
TAP	57	48	7
TAP	57	96	0
TAP	57	96	4
TAP	57	144	1
TAP	57	144	3
XTP	57	192	2
TAP	57	240	1
TAP	57	240	3
TAP	57	288	0
TAP	57	288	4
TAP	57	336	5
TAP	57	336	7
XTP	58	0	0
XTP	58	0	6
TAP	58	48	1
TAP	58	48	7
TAP	58	96	2
TAP	58	96	6
TAP	58	144	3
TAP	58	144	5
STR	58	192	4
SCR	58	192	4	96	96	0
STR	58	288	0
SCR	58	288	0	96	192	0
TTP	59	0	0	C	1	M1
STR	59	96	0
SCR	59	96	0	96	192	0
TTP	59	192	0	C	1	M1
STR	59	288	0
SCR	59	288	0	96	192	0
TTP	60	0	0	C	1	M1
STR	60	96	0
SI_	60	96	0	96	48	4
TTP	60	192	0	C	1	M1
BRK	60	288	2
BRK	60	288	6
XTP	61	0	7
TAP	61	48	3
TAP	61	48	6
TAP	61	96	2
TAP	61	144	1
TAP	61	144	4
TAP	61	192	5
TAP	61	240	0
TAP	61	240	6
TAP	61	288	1
XTP	61	336	2
XTP	61	336	4
TAP	62	0	3
XTP	62	48	2
XTP	62	48	4
TAP	62	96	3
XTP	62	144	2
XTP	62	144	4
TAP	62	192	5
TAP	62	240	1
TAP	62	240	6
TAP	62	288	7
TAP	62	312	0
TAP	62	336	7
TAP	62	360	0
TAP	63	0	7
TAP	63	48	3
TAP	63	48	6
TAP	63	96	2
TAP	63	144	1
TAP	63	144	4
TAP	63	192	5
TAP	63	240	3
TAP	63	240	6
TAP	63	288	2
TAP	63	336	1
TAP	63	336	5
XTP	64	0	0
BRK	64	0	7
BRK	64	48	2
XTP	64	48	4
XTP	64	96	1
BRK	64	96	6
BRK	64	144	3
XTP	64	144	5
XTP	64	192	2
BRK	64	192	7
BRK	64	240	0
XTP	64	240	4
XTP	64	288	3
BRK	64	288	6
BRK	64	336	1
XTP	64	336	5
XTP	65	0	0
XTP	65	0	2
TAP	65	96	5
TAP	65	96	7
TAP	65	192	2
TAP	65	192	4
TAP	65	240	3
TAP	65	240	5
TAP	65	336	1
TAP	65	336	3
TAP	66	96	3
TAP	66	96	4
TAP	66	192	2
TAP	66	192	5
TAP	66	288	1
TAP	66	288	6
HLD	67	0	0	192
HLD	67	0	7	192
BRK	67	240	1
XTP	67	240	6
BRK	67	288	2
XTP	67	288	5
BRK	67	336	3
XTP	67	336	4
TAP	68	48	2
TAP	68	48	5
TAP	68	96	2
TAP	68	96	5
TAP	68	192	6
TAP	68	192	7
TAP	68	288	4
STR	68	288	5
SXL	68	288	5	96	576	0
HLD	71	0	2	144
TAP	71	144	3
TAP	71	192	2
TAP	71	336	3
TAP	71	336	4
TAP	72	48	4
TAP	72	48	5
TAP	72	144	6
TAP	72	192	6
STR	72	288	0
SXL	72	288	0	96	576	3
TAP	72	288	7
TAP	73	0	6
TAP	73	144	7
TAP	73	192	7
TAP	73	336	6
TAP	74	48	5
TAP	74	144	4
TAP	74	192	4
TAP	74	288	3
HLD	75	0	2	144
TAP	75	144	3
TAP	75	192	2
TAP	75	288	5
TAP	75	336	3
TAP	75	360	4
TAP	76	0	2
TAP	76	48	2
TAP	76	96	5
TAP	76	144	5
TAP	76	192	1
TAP	76	240	1
BRK	76	288	0
BRK	76	288	4
TAP	77	0	1
TAP	77	0	3
TAP	77	48	2
TAP	77	96	2
TAP	77	144	2
TAP	77	192	4
TAP	77	192	6
TAP	77	240	5
TAP	77	288	5
TAP	77	336	5
TAP	78	0	0
TAP	78	0	2
TAP	78	48	1
TAP	78	96	1
TAP	78	144	1
TAP	78	192	5
TAP	78	192	7
TAP	78	240	6
TAP	78	288	6
TAP	78	336	6
TAP	79	0	1
TAP	79	0	3
TAP	79	48	2
STR	79	48	4
SCR	79	48	4	96	192	3
TAP	79	96	3
TAP	79	96	5
TAP	79	144	4
TAP	79	144	6
TAP	80	48	4
TAP	80	48	6
TAP	80	96	5
TAP	80	144	4
TAP	80	192	1
TAP	80	192	3
TAP	80	240	2
STR	80	288	4
SXL	80	288	4	96	192	3
TAP	80	288	6
TAP	80	336	5
TAP	81	0	2
TAP	81	0	4
TAP	81	288	2
TAP	81	320	4
TAP	81	352	3
TAP	82	0	5
TAP	82	48	5
TAP	82	96	7
TAP	82	144	7
TAP	82	192	0
TAP	82	192	6
TAP	82	288	1
TAP	82	288	3
TAP	82	336	2
TAP	82	336	4
TAP	83	48	4
TAP	83	48	6
TAP	83	144	2
TAP	83	144	4
TAP	83	192	5
TAP	83	240	5
TAP	83	288	1
TAP	83	336	1
TAP	84	0	6
TAP	84	48	7
TAP	84	96	0
TAP	84	144	1
TAP	84	192	2
TAP	84	192	5
TAP	84	288	0
TAP	84	288	7
XTP	85	0	1
TAP	85	32	3
TAP	85	64	1
TAP	85	96	6
TAP	85	128	4
TAP	85	160	6
TAP	85	192	2
TAP	85	224	3
TAP	85	256	2
TAP	85	288	5
TAP	85	320	4
TAP	85	352	5
TAP	86	0	1
TAP	86	32	0
TAP	86	64	1
TAP	86	96	6
TAP	86	128	7
TAP	86	160	6
TAP	86	192	2
TAP	86	224	0
TAP	86	256	2
XTP	86	288	3
XTP	86	288	7
TAP	87	0	2
TAP	87	0	5
TAP	87	96	0
TAP	87	96	4
TAP	87	120	1
TAP	87	144	2
TAP	87	168	3
TAP	87	192	4
TAP	87	192	7
TAP	87	216	6
TAP	87	240	5
TAP	87	264	4
HLD	87	288	0	96
TAP	87	288	3
TAP	88	0	4
TAP	88	24	0
TAP	88	48	4
TAP	88	72	0
TAP	88	96	5
TAP	88	120	1
TAP	88	144	5
TAP	88	168	1
TAP	88	192	6
TAP	88	216	2
TAP	88	240	6
TAP	88	264	2
XTP	88	288	3
XTP	88	288	7
BRK	89	0	1
BRK	89	0	5
TAP	89	144	7
TAP	89	168	0
HLD	89	192	7	64
HLD	89	256	6	64
HLD	89	320	5	64
HLD	90	0	1	64
HLD	90	64	2	64
STR	90	128	3
SI_	90	128	3	96	64	7
HLD	90	192	4	96
HLD	91	0	1	64
HLD	91	64	2	64
HLD	91	128	3	64
HLD	91	192	7	64
STR	91	256	6
SSL	91	256	6	96	224	2
BRK	91	320	5
XTP	93	0	3
TAP	93	24	4
TAP	93	48	3
TAP	93	72	4
TAP	93	96	3
TAP	93	120	4
TAP	93	144	3
TAP	93	168	4
TAP	93	192	3
TAP	93	216	4
TAP	93	240	3
TAP	93	264	4
TAP	93	288	3
TAP	93	312	4
TAP	93	336	3
TAP	93	360	4
TAP	94	0	3
TAP	94	24	4
TAP	94	48	3
TAP	94	72	4
TAP	94	96	3
TAP	94	120	4
TAP	94	144	3
TAP	94	168	4
TAP	94	192	3
TAP	94	216	4
TAP	94	240	3
TAP	94	264	4
TAP	94	288	3
TAP	94	312	4
TAP	94	336	3
TAP	94	360	4
TAP	95	0	3
TAP	95	24	4
TAP	95	48	3
TAP	95	72	4
TAP	95	96	3
TAP	95	120	4
TAP	95	144	3
TAP	95	168	4
TAP	95	192	3
TAP	95	216	4
TAP	95	240	3
TAP	95	264	4
TAP	95	288	3
TAP	95	312	4
TAP	95	336	3
TAP	95	360	4
TAP	96	0	3
TAP	96	24	4
TAP	96	48	3
TAP	96	72	4
TAP	96	96	3
TAP	96	120	4
TAP	96	144	3
TAP	96	168	4
TAP	96	192	3
TAP	96	216	4
TAP	96	240	3
TAP	96	264	4
TAP	96	288	3
TAP	96	312	4
TAP	96	336	3
TAP	96	360	4
TAP	97	0	3
TAP	97	24	4
TAP	97	48	3
TAP	97	72	4
TAP	97	96	3
TAP	97	120	4
TAP	97	144	3
TAP	97	168	4
TAP	97	192	3
TAP	97	216	4
TAP	97	240	3
TAP	97	264	4
TAP	97	288	3
TAP	97	312	4
TAP	97	336	3
TAP	97	360	4
TAP	98	0	3
TAP	98	24	4
TAP	98	48	3
TAP	98	72	4
TAP	98	96	3
TAP	98	120	4
TAP	98	144	3
TAP	98	168	4
TAP	98	192	3
TAP	98	216	4
TAP	98	240	3
TAP	98	264	4
TAP	98	288	3
TAP	98	312	4
TAP	98	336	3
TAP	98	360	4
XTP	99	0	3
TAP	99	24	4
TAP	99	48	3
TAP	99	72	4
XTP	99	96	3
TAP	99	120	4
TAP	99	144	3
TAP	99	168	4
XTP	99	192	3
TAP	99	216	4
TAP	99	240	3
TAP	99	264	4
XTP	99	288	3
TAP	99	312	4
TAP	99	336	3
TAP	99	360	4
XTP	100	0	3
TAP	100	24	4
TAP	100	48	3
TAP	100	72	4
XTP	100	96	2
TAP	100	120	5
TAP	100	144	2
TAP	100	168	5
XTP	100	192	1
TAP	100	216	6
TAP	100	240	1
TAP	100	264	6
XTP	100	288	0
TAP	100	312	7
TAP	100	336	0
TAP	100	360	7
BRK	101	0	1
BRK	101	0	6
TAP	101	96	5
TAP	101	120	5
TAP	101	144	4
STR	101	192	3
SI_	101	192	3	96	48	7
TAP	101	192	4
TAP	101	240	2
TAP	101	288	1
TAP	101	288	3
TAP	101	336	0
TAP	102	0	1
TAP	102	0	6
TAP	102	48	5
TAP	102	96	2
TAP	102	120	2
TAP	102	144	3
TAP	102	192	3
STR	102	192	4
SI_	102	192	4	96	48	0
TAP	102	240	5
TAP	102	288	4
TAP	102	288	6
TAP	102	336	7
TAP	103	0	1
TAP	103	0	6
TAP	103	48	2
TAP	103	96	5
TAP	103	120	5
TAP	103	144	4
STR	103	192	3
SI_	103	192	3	96	48	7
TAP	103	192	4
TAP	103	240	2
TAP	103	288	1
TAP	103	288	3
TAP	103	336	0
TAP	104	0	1
TAP	104	0	6
TAP	104	48	5
TAP	104	96	2
TAP	104	120	2
TAP	104	144	3
TAP	104	192	1
TAP	104	192	4
TAP	104	240	0
TAP	104	240	5
TAP	104	288	6
TAP	104	312	7
TAP	104	336	6
TAP	104	360	7
STR	105	0	6
SI_	105	0	6	96	48	2
TAP	105	48	6
STR	105	96	7
SI_	105	96	7	96	48	3
TAP	105	144	7
STR	105	192	0
SI_	105	192	0	96	48	4
TAP	105	240	0
STR	105	288	1
SI_	105	288	1	96	48	5
TAP	105	336	1
STR	106	0	0
SI_	106	0	0	96	48	4
TAP	106	48	0
STR	106	96	7
SI_	106	96	7	96	48	3
TAP	106	144	7
STR	106	192	6
SI_	106	192	6	96	48	2
TAP	106	240	6
TAP	106	288	1
XTP	107	0	3
XTP	107	12	4
XTP	107	24	5
XTP	107	36	6
XTP	107	48	7
XTP	107	60	0
XTP	107	72	1
XTP	107	84	2
XTP	107	96	3
XTP	107	108	4
XTP	107	120	5
XTP	107	132	6
XTP	107	144	7
XTP	107	240	6
XTP	107	240	7
XTP	107	288	4
XTP	107	288	5
XTP	107	336	2
XTP	107	336	3
TAP	108	48	0
TAP	108	48	1
STR	108	96	2
SI_	108	96	2	96	48	0
STR	108	96	3
SI_	108	96	3	96	48	5
STR	108	192	2
SI_	108	192	2	96	48	6
STR	108	192	3
SI_	108	192	3	96	48	7
TAP	108	288	2
TAP	108	288	3
BRK	109	0	4
BRK	109	0	5
TAP	109	48	6
TAP	109	96	1
TAP	109	120	1
TAP	109	144	0
TAP	109	192	0
STR	109	192	7
SI_	109	192	7	96	48	3
TAP	109	240	6
TAP	109	288	5
TAP	109	288	7
TAP	109	336	4
TAP	110	0	2
TAP	110	0	5
TAP	110	48	1
TAP	110	96	6
TAP	110	120	6
TAP	110	144	7
STR	110	192	0
SI_	110	192	0	96	48	4
TAP	110	192	7
TAP	110	240	1
TAP	110	288	0
TAP	110	288	2
TAP	110	336	3
TAP	111	0	2
TAP	111	0	5
TAP	111	48	6
TAP	111	96	1
TAP	111	120	1
TAP	111	144	0
TAP	111	192	0
STR	111	192	7
SI_	111	192	7	96	48	3
TAP	111	240	6
TAP	111	288	5
TAP	111	288	7
TAP	111	336	4
TAP	112	0	2
TAP	112	24	3
TAP	112	48	1
TAP	112	72	4
TAP	112	96	0
TAP	112	120	5
TAP	112	144	7
TAP	112	168	6
STR	112	192	7
SF_	112	192	7	96	48	3
XTP	113	0	5
XTP	113	12	4
XTP	113	24	3
XTP	113	36	2
XTP	113	48	1
XTP	113	60	0
XTP	113	72	7
XTP	113	84	6
XTP	113	96	5
XTP	113	108	4
XTP	113	120	3
XTP	113	132	2
XTP	113	144	1
XTP	113	156	0
XTP	113	168	7
XTP	113	180	6
XTP	113	192	5
XTP	113	204	4
XTP	113	216	3
XTP	113	228	2
XTP	113	240	1
XTP	113	252	0
XTP	113	264	7
XTP	113	276	6
XTP	113	288	5
XTP	113	300	4
XTP	113	312	3
XTP	113	324	2
XTP	113	336	1
XTP	113	348	0
XTP	113	360	7
XTP	113	372	6
TTP	114	0	0	C	1	M1
BRK	114	0	5
XTP	114	96	0
XTP	114	96	7
TAP	114	192	1
TAP	114	192	6
TAP	114	288	2
TAP	114	288	5
TAP	114	336	2
TAP	114	336	5
TAP	115	48	3
TAP	115	48	4
STR	115	96	3
SCL	115	96	3	96	288	4
STR	115	96	4
SCR	115	96	4	96	288	3
STR	116	288	4
SI_	116	288	4	96	1152	1
TAP	116	288	5
TTP	118	96	6	E	0	M1
TTP	118	192	6	B	0	M1
TTP	118	288	7	B	0	M1
TTP	119	0	0	E	0	M1
TAP	120	288	0
STR	120	288	7
SI_	120	288	7	96	1152	4
TTP	122	96	1	E	0	M1
TTP	122	192	1	B	0	M1
TTP	122	288	2	B	0	M1
TTP	123	0	3	E	0	M1
TTP	124	0	4	E	0	M1
TTP	125	96	5	B	0	M1
TTP	125	128	4	B	0	M1
TTP	125	160	3	B	0	M1
TTP	125	192	2	B	0	M1

T_REC_TAP	677
T_REC_BRK	32
T_REC_XTP	126
T_REC_HLD	45
T_REC_XHO	0
T_REC_STR	46
T_REC_BST	0
T_REC_XST	3
T_REC_TTP	37
T_REC_THO	0
T_REC_SLD	49
T_REC_ALL	1015
T_NUM_TAP	889
T_NUM_BRK	32
T_NUM_HLD	45
T_NUM_SLD	49
T_NUM_ALL	1015
T_JUDGE_TAP	921
T_JUDGE_HLD	183
T_JUDGE_SLD	49
T_JUDGE_ALL	1153
TTM_EACHPAIRS	212
TTM_SCR_TAP	444500
TTM_SCR_BRK	83200
TTM_SCR_HLD	45000
TTM_SCR_SLD	73500
TTM_SCR_ALL	646200
TTM_SCR_S	623750
TTM_SCR_SS	643000
TTM_RAT_ACV	10049

