VERSION	0.00.00	1.03.00
FES_MODE	0
BPM_DEF	203.000	203.000	203.000	203.000
MET_DEF	4	4
RESOLUTION	384
CLK_DEF	384
COMPATIBLE_CODE	MA2

BPM	0	0	203.000
MET	0	0	4	4

HLD	1	0	2	768
TAP	2	288	4
HLD	3	0	5	336
XTP	4	240	4
XTP	4	240	5
XTP	4	288	4
XTP	4	288	5
TAP	5	0	3
STR	5	0	6
SLL	5	0	6	96	288	7
STR	6	0	1
SLR	6	0	1	96	288	0
XTP	7	0	7
TAP	7	240	1
TAP	7	240	5
TAP	7	336	1
STR	7	336	5
SCR	7	336	5	96	240	3
HLD	9	0	2	288
TAP	9	96	3
TAP	9	192	4
TAP	9	288	5
HLD	10	0	6	288
TAP	10	96	7
TAP	10	192	0
TAP	10	288	1
HLD	11	0	2	144
HLD	11	0	5	144
XST	11	240	3
SXR	11	240	3	96	240	0
XST	11	240	4
SXL	11	240	4	96	240	7
TAP	13	0	2
TAP	13	0	5
TAP	13	96	2
TAP	13	96	5
TAP	13	192	3
TAP	13	192	5
TAP	13	288	3
TAP	13	288	5
TTP	14	0	4	E	0	M1
TAP	14	0	5
TTP	14	96	3	E	0	M1
TAP	14	96	5
TTP	14	192	2	E	0	M1
TAP	14	192	5
TTP	14	288	1	E	0	M1
TAP	14	288	5
XTP	15	0	0
XTP	15	0	5
TAP	15	96	0
TAP	15	96	5
TAP	15	192	1
TAP	15	192	5
TAP	15	288	1
TAP	15	288	5
TAP	16	0	3
TAP	16	0	5
TAP	16	96	3
TAP	16	96	5
TAP	16	192	2
TAP	16	192	4
TAP	16	288	2
TAP	16	288	4
XTP	17	0	2
XTP	17	0	3
TAP	17	96	2
TAP	17	96	3
TAP	17	192	2
TAP	17	192	4
TAP	17	288	2
TAP	17	288	4
TAP	18	0	2
TTP	18	0	4	E	0	M1
TAP	18	96	2
TTP	18	96	5	E	0	M1
TAP	18	192	2
TTP	18	192	6	E	0	M1
TAP	18	288	2
TTP	18	288	7	E	0	M1
TAP	19	0	2
XTP	19	0	7
TAP	19	96	2
TAP	19	96	7
TAP	19	192	2
TAP	19	192	6
TAP	19	288	2
TAP	19	288	6
TAP	20	0	2
TAP	20	0	4
TAP	20	96	2
TAP	20	96	4
TAP	20	192	3
TAP	20	192	5
TAP	20	288	3
TAP	20	288	5
XTP	21	0	2
XTP	21	0	6
TAP	21	96	2
TAP	21	96	6
TAP	21	192	3
TAP	21	192	6
TAP	21	288	3
TAP	21	288	6
TTP	22	0	3	E	0	M1
TAP	22	0	6
TTP	22	96	2	E	0	M1
TAP	22	96	6
TTP	22	192	1	E	0	M1
TAP	22	192	6
TTP	22	288	0	E	0	M1
TAP	22	288	6
XTP	23	0	6
XTP	23	0	7
TAP	23	96	6
TAP	23	96	7
TAP	23	192	0
TAP	23	192	6
TAP	23	288	0
TAP	23	288	6
TAP	24	0	3
TAP	24	0	6
TAP	24	96	3
TAP	24	96	6
TAP	24	192	2
TAP	24	192	4
TAP	24	288	2
TAP	24	288	4
XTP	25	0	1
XTP	25	0	5
TAP	25	96	1
TAP	25	96	5
TAP	25	192	1
TAP	25	192	4
TAP	25	288	1
TAP	25	288	4
TAP	26	0	1
TTP	26	0	5	E	0	M1
TAP	26	96	1
TTP	26	96	6	E	0	M1
TAP	26	192	1
TTP	26	192	7	E	0	M1
TTP	26	288	0	E	0	M1
TAP	26	288	1
XTP	27	0	0
XTP	27	0	1
TAP	27	96	0
TAP	27	96	1
TAP	27	192	2
TAP	27	192	3
TAP	27	288	2
TAP	27	288	3
BRK	28	0	1
BRK	28	0	4
TAP	28	96	4
TAP	28	96	5
BRK	28	192	3
BRK	28	192	6
STR	29	0	5
SCL	29	0	5	96	96	2
TAP	29	192	0
TAP	29	240	0
TAP	29	336	1
TAP	29	336	3
TAP	30	48	2
TAP	30	48	4
TAP	30	96	2
STR	30	96	4
SCR	30	96	4	96	96	7
STR	31	0	2
SCR	31	0	2	96	96	5
TAP	31	192	7
TAP	31	240	7
TAP	31	336	4
TAP	31	336	6
TAP	32	48	3
TAP	32	48	5
STR	32	96	3
SCL	32	96	3	96	96	0
TAP	32	96	5
STR	33	0	5
SCL	33	0	5	96	96	2
TAP	33	192	0
TAP	33	240	0
TAP	33	336	1
TAP	33	336	3
TAP	34	48	2
TAP	34	48	4
TAP	34	96	2
STR	34	96	4
SCR	34	96	4	96	96	7
HLD	35	0	2	96
HLD	35	0	6	96
HLD	35	192	3	96
HLD	35	192	5	96
TTP	36	0	0	C	1	M1
TTP	36	0	2	B	0	M1
TTP	36	0	6	B	0	M1
HLD	37	0	3	96
HLD	37	0	5	96
TAP	37	144	4
TAP	37	144	6
HLD	37	192	4	96
HLD	37	192	6	96
HLD	38	0	2	96
HLD	38	0	4	96
TAP	38	144	1
TAP	38	144	3
HLD	38	192	1	96
HLD	38	192	3	96
STR	39	0	4
SI_	39	0	4	96	96	7
STR	39	96	3
SI_	39	96	3	96	96	0
STR	40	0	1
SI_	40	0	1	96	96	4
STR	40	96	0
SI_	40	96	0	96	96	5
HLD	41	0	3	96
HLD	41	0	5	96
TAP	41	144	2
TAP	41	144	6
HLD	41	192	2	96
HLD	41	192	6	96
HLD	42	0	2	96
HLD	42	0	4	96
TAP	42	144	1
TAP	42	144	5
HLD	42	192	1	96
HLD	42	192	5	96
STR	43	0	0
SI_	43	0	0	96	96	3
STR	43	96	7
SI_	43	96	7	96	96	4
STR	44	0	2
SI_	44	0	2	96	96	7
STR	44	96	3
SI_	44	96	3	96	96	6
TAP	45	0	0
TAP	45	0	7
TAP	45	96	5
TAP	45	144	5
TAP	45	192	4
TAP	45	288	3
TAP	45	288	6
TAP	46	0	0
TAP	46	0	7
TAP	46	96	2
TAP	46	144	2
TAP	46	192	3
TAP	46	288	1
TAP	46	288	4
STR	47	0	5
SI_	47	0	5	96	96	0
STR	47	96	2
SI_	47	96	2	96	96	5
STR	48	0	7
SI_	48	0	7	96	96	4
STR	48	96	2
SI_	48	96	2	96	96	7
TAP	49	0	4
TAP	49	0	6
TAP	49	96	1
TAP	49	96	3
TAP	49	192	0
TAP	49	192	7
STR	49	288	0
SI_	49	288	0	96	48	4
STR	49	288	7
SI_	49	288	7	96	48	3
STR	50	192	3
SSR	50	192	3	96	288	7
STR	50	192	4
SSL	50	192	4	96	288	0
XTP	52	0	0
XTP	52	0	7
XTP	52	48	0
XTP	52	48	7
TTP	52	144	0	C	1	M1
TTP	52	144	2	B	0	M1
TTP	52	144	3	B	0	M1
TTP	52	144	4	B	0	M1
TTP	52	144	5	B	0	M1
TAP	53	0	0
TAP	53	0	7
TAP	53	96	4
TAP	53	96	6
TAP	53	192	0
TAP	53	192	7
TAP	53	288	1
TAP	53	288	3
TAP	54	0	0
TAP	54	0	7
TAP	54	96	5
TAP	54	96	6
TAP	54	192	3
TAP	54	192	4
TAP	54	288	1
TAP	54	288	2
TAP	55	0	0
TAP	55	0	7
TAP	55	96	1
TAP	55	96	3
TAP	55	192	0
TAP	55	192	7
TAP	55	288	4
TAP	55	288	6
TAP	56	0	0
TAP	56	0	7
TAP	56	96	1
TAP	56	96	2
TAP	56	192	3
TAP	56	192	4
TAP	56	288	5
TAP	56	288	6
TAP	57	0	7
TAP	57	96	1
TAP	57	96	5
TAP	57	192	0
TAP	57	192	6
TAP	57	288	2
TAP	57	288	4
TAP	58	0	0
TAP	58	96	2
TAP	58	96	6
TAP	58	192	1
TAP	58	192	7
TAP	58	288	3
TAP	58	288	5
STR	59	0	4
SCR	59	0	4	96	96	7
STR	59	192	0
SCR	59	192	0	96	96	3
STR	60	0	4
SCR	60	0	4	96	96	7
XTP	60	192	0
TAP	61	0	0
TAP	61	0	1
TAP	61	96	2
TAP	61	96	4
TAP	61	192	6
TAP	61	192	7
TAP	61	288	3
TAP	61	288	5
TAP	62	0	0
TAP	62	0	1
TAP	62	96	2
TAP	62	96	3
TAP	62	192	4
TAP	62	192	5
TAP	62	288	6
TAP	62	288	7
TAP	63	0	0
TAP	63	0	1
TAP	63	96	3
TAP	63	96	5
TAP	63	192	6
TAP	63	192	7
TAP	63	288	2
TAP	63	288	4
TAP	64	0	0
TAP	64	0	6
TAP	64	96	4
TAP	64	96	5
TAP	64	192	1
TAP	64	192	7
TAP	64	288	2
TAP	64	288	3
STR	65	0	0
SI_	65	0	0	96	96	3
STR	65	0	6
SI_	65	0	6	96	96	3
XTP	65	336	2
XTP	65	336	4
TAP	66	96	3
TAP	66	96	5
TAP	66	192	2
TAP	66	192	6
STR	66	288	1
SI_	66	288	1	96	96	4
STR	66	288	7
SI_	66	288	7	96	96	4
XTP	67	240	0
XTP	67	240	6
XTP	67	336	0
XTP	67	336	6
TAP	68	48	7
HLD	68	96	7	96
TAP	68	192	0
BST	68	288	0
SCR	68	288	0	96	480	7
BST	68	288	7
SCL	68	288	7	96	480	0
TAP	71	0	3
HLD	71	0	5	144
TAP	71	144	4
TAP	71	192	4
TAP	71	336	3
TAP	71	336	6
TAP	72	48	1
TAP	72	48	4
TAP	72	144	2
TAP	72	144	5
TAP	72	192	2
TAP	72	192	5
BST	72	288	0
SCR	72	288	0	96	480	7
BST	72	288	7
SCL	72	288	7	96	480	0
HLD	75	0	2	144
TAP	75	0	4
TAP	75	144	3
TAP	75	192	3
TAP	75	336	1
TAP	75	336	4
TAP	76	48	3
TAP	76	48	6
TAP	76	144	2
TAP	76	144	5
TAP	76	240	0
TAP	76	240	7
TAP	76	288	0
TAP	76	288	7
TAP	77	0	6
HLD	77	96	6	96
TAP	77	192	4
HLD	77	288	4	96
TAP	78	0	3
HLD	78	96	3	96
TAP	78	192	1
TAP	78	288	1
STR	79	0	7
SCL	79	0	7	96	144	2
TTP	80	0	1	E	0	M1
TTP	80	96	0	E	0	M1
TTP	80	192	7	E	0	M1
TTP	80	288	6	E	0	M1
TAP	81	0	2
HLD	81	96	2	96
TAP	81	192	0
HLD	81	288	0	96
TAP	82	0	7
HLD	82	96	7	96
TAP	82	192	5
TAP	82	288	5
STR	83	0	3
SCL	83	0	3	96	144	6
TTP	84	0	5	E	0	M1
TTP	84	96	4	E	0	M1
TTP	84	192	3	E	0	M1
TTP	84	288	2	E	0	M1
HLD	85	0	1	96
TAP	85	96	3
HLD	85	192	6	96
TAP	85	288	4
HLD	86	0	2	96
TAP	86	96	3
HLD	86	192	5	96
TAP	86	288	4
HLD	87	0	2	96
HLD	87	96	3	96
HLD	87	192	4	96
HLD	87	288	5	96
HLD	88	0	6	96
HLD	88	96	7	96
HLD	88	192	0	96
TAP	88	288	1
STR	89	0	0
SUR	89	0	0	96	144	5
STR	89	0	1
SCR	89	0	1	96	144	4
STR	90	0	6
SCL	90	0	6	96	144	3
STR	90	0	7
SUL	90	0	7	96	144	2
XHO	91	0	1	72
XHO	91	72	2	72
XTP	91	144	3
XHO	91	192	6	72
XHO	91	264	5	72
XST	91	336	4
SUL	91	336	4	96	192	3
HLD	93	0	2	384
TAP	93	96	3
TAP	93	192	3
TAP	93	288	4
HLD	94	0	5	384
TAP	94	96	4
TAP	94	192	4
TAP	94	288	3
HLD	95	0	2	384
TAP	95	96	3
TAP	95	192	3
TAP	95	288	4
HLD	96	0	5	384
TAP	96	96	4
TAP	96	192	4
TAP	96	288	3
TAP	97	0	2
TAP	97	48	2
TAP	97	96	4
TAP	97	144	4
TAP	97	192	3
TAP	97	240	3
TAP	97	288	5
TAP	97	336	5
TAP	98	0	2
TAP	98	48	2
TAP	98	96	4
TAP	98	144	4
TAP	98	192	3
TAP	98	240	3
TAP	98	288	5
TAP	98	336	5
TAP	99	0	4
TAP	99	0	6
TAP	99	96	1
TAP	99	96	3
TAP	99	192	4
TAP	99	192	6
TAP	99	288	1
TAP	99	288	3
TAP	100	0	0
TAP	100	0	7
TAP	100	48	0
TAP	100	48	7
TAP	100	96	0
TAP	100	96	7
XTP	100	192	2
XTP	100	192	5
XTP	100	288	2
XTP	100	288	5
TAP	101	0	6
TAP	101	0	7
TAP	101	96	2
TAP	101	96	4
TAP	101	192	0
TAP	101	192	1
TAP	101	288	3
TAP	101	288	5
STR	102	0	6
SI_	102	0	6	96	48	3
STR	102	0	7
SI_	102	0	7	96	48	2
STR	102	192	0
SI_	102	192	0	96	48	5
STR	102	192	1
SI_	102	192	1	96	48	4
TAP	103	0	6
TAP	103	0	7
TAP	103	96	2
TAP	103	96	4
TAP	103	192	0
TAP	103	192	1
TAP	103	288	3
TAP	103	288	5
STR	104	0	6
SI_	104	0	6	96	48	3
STR	104	0	7
SI_	104	0	7	96	48	2
STR	104	192	0
SI_	104	192	0	96	48	5
STR	104	192	1
SI_	104	192	1	96	48	4
HLD	105	0	6	96
HLD	105	96	7	96
HLD	105	192	0	96
HLD	105	288	1	96
HLD	106	0	2	96
TAP	106	96	3
TAP	106	192	1
TAP	106	192	4
TAP	106	288	1
TAP	106	288	4
STR	107	0	5
SCR	107	0	5	96	96	0
TAP	107	192	3
TAP	107	288	3
XST	108	0	2
SCL	108	0	2	96	96	7
TAP	108	192	4
TAP	108	288	4
TAP	109	0	0
TAP	109	0	6
TAP	109	96	2
TAP	109	96	3
TAP	109	192	1
TAP	109	192	7
TAP	109	288	4
TAP	109	288	5
STR	110	0	6
SI_	110	0	6	96	48	3
TAP	110	96	0
STR	110	192	1
SI_	110	192	1	96	48	4
TAP	110	288	7
TAP	111	0	7
TAP	111	96	3
TAP	111	96	5
TAP	111	192	0
TAP	111	192	7
TAP	111	288	2
TAP	111	288	4
STR	112	0	5
SI_	112	0	5	96	48	0
TAP	112	96	3
STR	112	192	2
SI_	112	192	2	96	48	7
STR	112	288	4
SCR	112	288	4	96	240	3
XTP	114	96	2
XTP	114	96	5
TAP	114	192	1
TAP	114	192	6
BST	114	288	0
SXL	114	288	0	96	384	3
BST	114	288	7
SXR	114	288	7	96	384	4
TAP	116	288	2
TAP	116	288	5
STR	117	0	3
SCL	117	0	3	96	1056	4
STR	117	0	4
SCR	117	0	4	96	1056	3
TAP	120	288	2
TAP	120	288	5
STR	121	0	3
SCL	121	0	3	96	1056	4
STR	121	0	4
SCR	121	0	4	96	1056	3
TTP	125	96	3	E	0	M1
TTP	125	128	3	B	0	M1
TTP	125	160	4	B	0	M1
TTP	125	192	5	E	0	M1

T_REC_TAP	367
T_REC_BRK	4
T_REC_XTP	36
T_REC_HLD	55
T_REC_XHO	4
T_REC_STR	56
T_REC_BST	6
T_REC_XST	4
T_REC_TTP	36
T_REC_THO	0
T_REC_SLD	66
T_REC_ALL	634
T_NUM_TAP	499
T_NUM_BRK	10
T_NUM_HLD	59
T_NUM_SLD	66
T_NUM_ALL	634
T_JUDGE_TAP	509
T_JUDGE_HLD	173
T_JUDGE_SLD	66
T_JUDGE_ALL	748
TTM_EACHPAIRS	185
TTM_SCR_TAP	249500
TTM_SCR_BRK	26000
TTM_SCR_HLD	59000
TTM_SCR_SLD	99000
TTM_SCR_ALL	433500
TTM_SCR_S	419550
TTM_SCR_SS	432500
TTM_RAT_ACV	10023

