VERSION	0.00.00	1.03.00
FES_MODE	0
BPM_DEF	203.000	203.000	203.000	203.000
MET_DEF	4	4
RESOLUTION	384
CLK_DEF	384
COMPATIBLE_CODE	MA2

BPM	0	0	203.000
MET	0	0	4	4

TAP	5	0	1
TAP	5	192	1
TAP	6	0	0
TAP	6	192	0
STR	7	0	7
SUL	7	0	7	96	384	4
TAP	9	0	2
TAP	9	192	3
TAP	10	0	4
TAP	10	192	5
STR	11	0	3
SXR	11	0	3	96	480	0
STR	11	0	4
SXL	11	0	4	96	480	7
TAP	13	0	6
TAP	13	96	6
TAP	13	192	6
TAP	13	192	7
TAP	14	0	1
TAP	14	96	1
TAP	14	192	0
TAP	14	192	1
TAP	15	0	6
TAP	15	96	6
TAP	15	192	6
TAP	15	192	7
TAP	16	0	0
TAP	16	96	0
TAP	16	192	1
TAP	16	192	7
TAP	17	0	2
TAP	17	96	2
TAP	17	192	2
TAP	17	192	3
TAP	18	0	5
TAP	18	96	5
TAP	18	192	4
TAP	18	192	5
TAP	19	0	2
TAP	19	96	2
TAP	19	192	2
TAP	19	192	3
TAP	20	0	4
TAP	20	96	3
TAP	20	96	4
TAP	20	192	2
TAP	20	192	5
TAP	21	0	1
TAP	21	96	1
TAP	21	192	0
TAP	21	192	1
TAP	22	0	6
TAP	22	96	6
TAP	22	192	6
TAP	22	192	7
TAP	23	0	1
TAP	23	96	1
TAP	23	192	0
TAP	23	192	1
TAP	24	0	7
TAP	24	96	7
TAP	24	192	0
TAP	24	192	6
TAP	25	0	5
TAP	25	96	5
TAP	25	192	4
TAP	25	192	5
TAP	26	0	2
TAP	26	96	2
TAP	26	192	2
TAP	26	192	3
TAP	27	0	5
TAP	27	96	5
TAP	27	192	4
TAP	27	288	3
TAP	27	288	4
BRK	28	0	2
BRK	28	0	5
STR	29	0	6
SUL	29	0	6	96	192	2
STR	30	0	1
SUR	30	0	1	96	192	5
STR	31	0	6
SCL	31	0	6	96	192	3
STR	32	0	2
SCL	32	0	2	96	192	7
STR	33	0	6
SI_	33	0	6	96	192	3
STR	34	0	2
SI_	34	0	2	96	192	7
TAP	35	0	6
TAP	35	96	6
TAP	35	192	7
TAP	35	288	7
XTP	36	0	0
XTP	36	0	7
HLD	37	0	6	192
TAP	37	192	7
TAP	38	0	5
TAP	38	96	4
TAP	38	192	3
TAP	38	192	5
HLD	39	0	2	192
TAP	39	192	3
TAP	40	0	1
TAP	40	96	0
TAP	40	192	0
TAP	40	192	7
HLD	41	0	1	192
TAP	41	192	0
TAP	42	0	2
TAP	42	96	3
TAP	42	192	2
TAP	42	192	4
HLD	43	0	5	192
TAP	43	192	4
TAP	44	0	6
TAP	44	96	7
TAP	44	192	0
TAP	44	192	7
HLD	45	0	1	192
TAP	45	192	0
TAP	46	0	2
TAP	46	96	3
TAP	46	192	2
TAP	46	192	4
HLD	47	0	5	192
TAP	47	192	4
TAP	48	0	6
TAP	48	96	7
TAP	48	192	0
TAP	48	192	7
HLD	49	0	6	192
TAP	49	192	7
TAP	50	0	4
TAP	50	0	5
TAP	50	192	3
TAP	50	192	4
STR	51	0	3
SI_	51	0	3	96	192	0
STR	51	0	4
SI_	51	0	4	96	192	7
XTP	52	0	0
XTP	52	0	7
XTP	52	96	0
XTP	52	96	7
XTP	52	192	1
XTP	52	192	6
BRK	53	0	0
TAP	53	96	0
TAP	53	192	0
TAP	53	192	1
TAP	53	288	0
TAP	53	288	1
TAP	54	0	2
TAP	54	96	3
TAP	54	192	4
TAP	54	288	5
TAP	55	0	6
TAP	55	96	6
TAP	55	192	6
TAP	55	192	7
TAP	55	288	6
TAP	55	288	7
TAP	56	0	5
TAP	56	96	4
TAP	56	192	3
TAP	56	192	5
TAP	57	0	2
TAP	57	96	2
TAP	57	192	2
TAP	57	192	3
TAP	57	288	2
TAP	57	288	3
TAP	58	0	5
TAP	58	96	5
TAP	58	192	4
TAP	58	192	5
TAP	58	288	4
TAP	58	288	5
XTP	59	0	6
TAP	59	96	6
XTP	59	192	7
TAP	59	288	7
XTP	60	0	0
TAP	60	96	0
XTP	60	192	0
XTP	60	192	7
BRK	61	0	6
TAP	61	96	6
TAP	61	192	6
TAP	61	192	7
TAP	61	288	6
TAP	61	288	7
TAP	62	0	5
TAP	62	96	4
TAP	62	192	3
TAP	62	288	2
TAP	63	0	1
TAP	63	96	1
TAP	63	192	0
TAP	63	192	1
TAP	63	288	0
TAP	63	288	1
TAP	64	0	2
TAP	64	96	3
TAP	64	192	4
TAP	64	288	5
STR	65	0	3
SI_	65	0	3	96	144	0
STR	65	0	4
SI_	65	0	4	96	144	7
TAP	66	0	1
TAP	66	96	0
TAP	66	192	7
TAP	66	288	6
TAP	67	0	0
TAP	67	0	7
TAP	67	96	0
TAP	67	96	7
TAP	67	192	1
TAP	67	192	6
TAP	67	288	1
TAP	67	288	6
TAP	68	0	2
TAP	68	0	5
TAP	68	96	2
TAP	68	96	5
TAP	68	192	3
TAP	68	192	4
BST	69	0	3
SXR	69	0	3	96	480	0
BST	69	0	4
SXL	69	0	4	96	480	7
TAP	71	0	0
TAP	71	0	7
TAP	71	192	0
TAP	71	192	7
TAP	72	0	1
TAP	72	0	6
TAP	72	192	2
TAP	72	192	5
BST	73	0	3
SXR	73	0	3	96	480	0
BST	73	0	4
SXL	73	0	4	96	480	7
TAP	75	0	0
TAP	75	0	7
TAP	75	192	1
TAP	75	192	6
TAP	76	0	2
TAP	76	0	5
TAP	76	96	2
TAP	76	96	5
TAP	76	192	2
TAP	76	192	5
TTP	77	0	6	E	0	L1
TTP	77	96	5	B	0	L1
TTP	77	192	4	B	0	L1
TTP	78	0	2	E	0	L1
TTP	78	96	2	B	0	L1
TTP	78	192	3	B	0	L1
TTP	79	0	6	E	0	L1
TTP	79	96	5	B	0	L1
TTP	79	192	4	B	0	L1
TTP	80	0	2	E	0	L1
TTP	80	96	2	B	0	L1
TTP	80	192	3	B	0	L1
TTP	81	0	5	E	0	L1
TTP	81	96	5	B	0	L1
TTP	81	192	6	B	0	L1
TTP	82	0	3	E	0	L1
TTP	82	96	2	B	0	L1
TTP	82	192	1	B	0	L1
TTP	83	0	5	E	0	L1
TTP	83	96	5	B	0	L1
TTP	83	192	6	B	0	L1
TTP	84	0	3	E	0	L1
TTP	84	96	2	B	0	L1
TTP	84	192	1	B	0	L1
XST	85	0	7
SI_	85	0	7	96	192	3
STR	86	0	2
SI_	86	0	2	96	192	7
STR	87	0	6
SI_	87	0	6	96	192	3
TAP	88	0	2
TAP	88	96	2
TAP	88	192	2
TAP	88	192	3
STR	89	0	1
SUR	89	0	1	96	192	5
STR	90	0	6
SUL	90	0	6	96	192	2
TAP	91	0	1
TAP	91	96	1
TAP	91	192	0
TAP	91	288	0
TAP	92	0	0
TAP	92	0	7
HLD	93	0	6	384
HLD	94	0	7	384
HLD	95	0	0	384
TAP	96	0	1
HLD	97	0	2	384
HLD	98	0	3	384
HLD	99	0	4	384
TAP	100	0	5
BRK	101	0	5
TAP	101	96	5
TAP	101	192	4
TAP	101	192	5
TAP	101	288	4
TAP	101	288	5
TAP	102	0	6
TAP	102	96	7
TAP	102	192	0
TAP	102	288	1
TAP	103	0	2
TAP	103	96	2
TAP	103	192	2
TAP	103	192	3
TAP	103	288	2
TAP	103	288	3
TAP	104	0	1
TAP	104	96	0
TAP	104	192	7
TAP	104	288	6
TAP	105	0	5
TAP	105	96	5
TAP	105	192	4
TAP	105	288	4
TAP	106	0	3
TAP	106	96	3
TAP	106	192	2
TAP	106	288	1
STR	107	0	0
SI_	107	0	0	96	144	3
STR	107	0	7
SI_	107	0	7	96	144	4
XTP	108	0	3
XTP	108	0	4
XTP	108	96	3
XTP	108	96	4
XTP	108	192	3
XTP	108	192	4
BRK	109	0	2
TAP	109	96	2
TAP	109	192	2
TAP	109	192	3
TAP	109	288	2
TAP	109	288	3
TAP	110	0	1
TAP	110	96	0
TAP	110	192	7
TAP	110	288	6
TAP	111	0	5
TAP	111	96	5
TAP	111	192	4
TAP	111	192	5
TAP	111	288	4
TAP	111	288	5
TAP	112	0	6
TAP	112	96	0
TAP	112	96	7
TAP	112	192	1
TAP	112	192	6
TAP	112	288	2
TAP	112	288	5
BST	113	0	3
SI_	113	0	3	96	144	0
BST	113	0	4
SI_	113	0	4	96	144	7
XTP	114	0	0
XTP	114	0	7
XTP	114	192	0
XTP	114	192	7
TAP	115	0	1
TAP	115	96	1
TAP	115	192	0
TAP	115	192	7
TAP	115	288	0
TAP	115	288	7
TAP	116	0	1
TAP	116	0	6
TAP	116	96	2
TAP	116	96	5
TAP	116	192	3
TAP	116	192	4
TAP	117	0	3
STR	117	0	4
SCR	117	0	4	96	864	3
TAP	121	0	3
STR	121	0	4
SCR	121	0	4	96	864	3

T_REC_TAP	273
T_REC_BRK	6
T_REC_XTP	23
T_REC_HLD	13
T_REC_XHO	0
T_REC_STR	21
T_REC_BST	6
T_REC_XST	1
T_REC_TTP	24
T_REC_THO	0
T_REC_SLD	28
T_REC_ALL	395
T_NUM_TAP	342
T_NUM_BRK	12
T_NUM_HLD	13
T_NUM_SLD	28
T_NUM_ALL	395
T_JUDGE_TAP	354
T_JUDGE_HLD	76
T_JUDGE_SLD	28
T_JUDGE_ALL	458
TTM_EACHPAIRS	91
TTM_SCR_TAP	171000
TTM_SCR_BRK	31200
TTM_SCR_HLD	13000
TTM_SCR_SLD	42000
TTM_SCR_ALL	257200
TTM_SCR_S	248350
TTM_SCR_SS	256000
TTM_RAT_ACV	10046

