VERSION	0.00.00	1.03.00
FES_MODE	0
BPM_DEF	203.000	203.000	203.000	203.000
MET_DEF	4	4
RESOLUTION	384
CLK_DEF	384
COMPATIBLE_CODE	MA2

BPM	0	0	203.000
MET	0	0	4	4

HLD	1	0	0	384
TAP	3	0	0
TAP	4	0	0
HLD	5	0	7	384
TAP	7	0	7
TAP	8	0	7
HLD	9	0	0	384
HLD	9	0	7	384
TAP	11	0	0
TAP	11	0	7
XTP	12	0	0
XTP	12	0	7
TAP	13	0	0
TAP	13	192	0
TAP	14	0	0
TAP	15	0	1
TAP	15	192	1
TAP	16	0	1
TAP	17	0	2
TAP	17	192	2
TAP	18	0	2
TAP	19	0	3
TAP	19	192	3
TAP	20	0	3
TAP	21	0	4
TAP	21	192	4
TAP	22	0	4
TAP	23	0	5
TAP	23	192	5
TAP	24	0	5
TAP	25	0	6
TAP	25	192	6
TAP	26	0	6
TAP	27	0	7
TAP	27	192	7
TAP	28	0	0
TAP	28	0	7
TTP	29	0	0	B	0	L1
TTP	29	0	7	B	0	L1
TTP	30	0	1	B	0	L1
TTP	30	0	6	B	0	L1
TTP	31	0	2	B	0	L1
TTP	31	0	5	B	0	L1
TTP	32	0	3	B	0	L1
TTP	32	0	4	B	0	L1
TTP	33	0	2	B	0	L1
TTP	33	0	5	B	0	L1
TTP	34	0	1	B	0	L1
TTP	34	0	6	B	0	L1
THO	35	0	0	384	C	1	L1
TAP	37	0	7
TAP	37	192	7
TAP	38	0	7
TAP	38	192	7
TAP	39	0	6
TAP	39	192	6
TAP	40	0	6
TAP	41	0	5
TAP	41	192	5
TAP	42	0	5
TAP	42	192	5
TAP	43	0	4
TAP	43	192	4
TAP	44	0	3
TAP	44	0	4
TAP	45	0	3
TAP	45	192	3
TAP	46	0	3
TAP	46	192	3
TAP	47	0	2
TAP	47	192	2
TAP	48	0	2
TAP	48	0	3
TAP	49	0	1
TAP	49	192	1
TAP	50	0	1
TAP	50	192	1
XTP	51	0	0
XTP	51	0	7
XTP	51	192	0
XTP	51	192	7
BRK	52	0	0
BRK	52	0	7
TAP	53	0	0
TAP	53	96	0
TAP	53	192	0
TAP	54	0	1
TAP	54	192	1
TAP	55	0	2
TAP	55	96	2
TAP	55	192	2
TAP	56	0	3
TAP	56	192	3
TAP	57	0	4
TAP	57	96	4
TAP	57	192	4
TAP	58	0	3
TAP	58	96	3
TAP	58	192	3
TAP	59	0	3
TAP	59	0	4
TAP	59	192	3
TAP	59	192	4
TAP	60	0	3
TAP	60	0	4
TAP	61	0	5
TAP	61	96	5
TAP	61	192	5
TAP	62	0	6
TAP	62	192	6
TAP	63	0	7
TAP	63	96	7
TAP	63	192	7
TAP	64	0	7
TAP	64	192	7
TAP	65	0	0
TAP	65	96	0
TAP	65	192	0
TAP	66	0	0
TAP	66	192	0
HLD	67	0	0	192
HLD	67	0	7	192
XTP	68	0	0
XTP	68	0	7
STR	69	0	0
SI_	69	0	0	96	288	3
STR	71	0	4
SI_	71	0	4	96	288	7
STR	73	0	0
SI_	73	0	0	96	288	3
STR	75	0	4
SI_	75	0	4	96	288	7
TAP	77	0	0
TAP	77	192	0
TAP	78	0	1
TAP	78	192	1
TAP	79	0	2
TAP	79	96	2
TAP	79	192	2
TAP	80	0	2
TAP	80	0	3
TAP	81	0	4
TAP	81	192	4
TAP	82	0	5
TAP	82	192	5
TAP	83	0	6
TAP	83	96	6
TAP	83	192	6
TAP	84	0	6
TAP	84	0	7
TAP	85	0	5
TAP	85	192	5
TAP	86	0	4
TAP	86	192	4
TAP	87	0	3
TAP	87	192	3
TAP	88	0	2
TAP	88	192	2
TAP	89	0	2
TAP	89	0	3
TAP	89	192	2
TAP	89	192	3
TAP	90	0	2
TAP	90	0	3
TAP	91	0	4
TAP	91	192	4
TAP	92	0	3
TAP	92	0	4
TTP	93	0	3	B	0	L1
TTP	94	0	4	B	0	L1
TTP	95	0	2	B	0	L1
TTP	96	0	5	B	0	L1
TTP	97	0	1	B	0	L1
TTP	98	0	6	B	0	L1
THO	99	0	0	384	C	1	L1
XTP	101	0	0
TAP	101	96	0
TAP	101	192	0
TAP	102	0	1
TAP	102	96	1
TAP	102	192	1
TAP	103	0	2
TAP	103	96	2
TAP	103	192	2
TAP	104	0	3
TAP	104	96	3
TAP	104	192	3
TAP	104	192	4
TAP	105	0	4
TAP	105	96	4
TAP	105	192	4
TAP	106	0	5
TAP	106	96	5
TAP	106	192	5
TAP	107	0	6
TAP	107	96	6
TAP	107	192	6
TAP	108	0	7
TAP	108	96	7
TAP	108	192	0
TAP	108	192	7
TAP	109	0	6
TAP	109	96	6
TAP	109	192	6
TAP	109	288	6
TAP	110	0	5
TAP	110	96	5
TAP	110	192	4
TAP	110	192	5
TAP	111	0	3
TAP	111	96	3
TAP	111	192	3
TAP	111	288	3
TAP	112	0	2
TAP	112	96	2
TAP	112	192	2
TAP	112	192	3
TAP	113	0	1
TAP	113	96	1
TAP	113	192	0
TAP	113	288	0
TAP	114	0	7
TAP	114	96	7
TAP	114	192	6
TAP	114	288	6
XHO	115	0	0	384
XHO	115	0	7	384
TTP	117	0	0	B	0	L1
TTP	117	0	1	B	0	L1
TTP	119	0	2	B	0	L1
TTP	119	0	3	B	0	L1
TTP	121	0	4	B	0	L1
TTP	121	0	5	B	0	L1
THO	123	0	0	864	C	0	L1

T_REC_TAP	180
T_REC_BRK	2
T_REC_XTP	9
T_REC_HLD	6
T_REC_XHO	2
T_REC_STR	4
T_REC_BST	0
T_REC_XST	0
T_REC_TTP	24
T_REC_THO	3
T_REC_SLD	4
T_REC_ALL	234
T_NUM_TAP	217
T_NUM_BRK	2
T_NUM_HLD	11
T_NUM_SLD	4
T_NUM_ALL	234
T_JUDGE_TAP	219
T_JUDGE_HLD	90
T_JUDGE_SLD	4
T_JUDGE_ALL	313
TTM_EACHPAIRS	25
TTM_SCR_TAP	108500
TTM_SCR_BRK	5200
TTM_SCR_HLD	11000
TTM_SCR_SLD	6000
TTM_SCR_ALL	130700
TTM_SCR_S	126600
TTM_SCR_SS	130500
TTM_RAT_ACV	10015

