VERSION	0.00.00	1.03.00
FES_MODE	0
BPM_DEF	150.000	150.000	150.000	150.000
MET_DEF	4	4
RESOLUTION	384
CLK_DEF	384
COMPATIBLE_CODE	MA2

BPM	0	0	150.000
MET	0	0	4	4

XTP	0	372	6
XTP	1	0	5
XST	1	12	4
SUR	1	12	4	96	180	2
HLD	1	192	3	288
TAP	2	0	2
TAP	2	96	4
TAP	2	192	5
XTP	2	372	1
XTP	3	0	2
XST	3	12	3
SUR	3	12	3	96	228	4
TAP	3	192	4
HLD	4	0	3	48
HLD	4	0	5	48
HLD	4	96	2	48
HLD	4	96	4	48
HLD	4	192	4	48
HLD	4	192	6	48
HLD	4	288	1	48
HLD	4	288	3	48
TAP	5	0	0
TAP	5	0	4
TAP	5	48	0
TAP	5	48	4
TTP	5	96	1	E	0	M1
TTP	5	120	1	B	0	M1
TTP	5	144	2	B	0	M1
TTP	5	168	3	E	0	M1
TTP	5	192	7	E	0	M1
TTP	5	216	6	B	0	M1
TTP	5	240	5	B	0	M1
TTP	5	264	5	E	0	M1
XTP	5	288	0
TAP	6	0	1
HLD	6	48	1	96
TTP	6	96	5	E	0	M1
TTP	6	120	4	B	0	M1
TTP	6	144	3	B	0	M1
TTP	6	168	3	E	0	M1
TTP	6	192	0	C	0	M1
XTP	6	288	0
XTP	6	288	7
TAP	7	0	1
TAP	7	0	5
TAP	7	48	1
TAP	7	48	5
TTP	7	96	6	E	0	M1
TTP	7	120	6	B	0	M1
TTP	7	144	7	B	0	M1
TTP	7	168	0	E	0	M1
TTP	7	192	2	E	0	M1
TTP	7	216	2	B	0	M1
TTP	7	240	3	B	0	M1
TTP	7	264	4	E	0	M1
XST	7	288	0
SCL	7	288	0	96	192	1
XHO	8	0	3	288
BRK	8	288	7
TAP	9	0	3
TAP	9	0	4
XST	9	48	3
SCL	9	48	3	96	48	0
XTP	9	48	4
XST	9	144	3
SCR	9	144	3	96	48	6
XTP	9	144	5
XTP	9	240	1
XTP	9	240	3
TAP	9	336	2
HLD	10	0	2	96
TAP	10	48	0
HLD	10	96	3	96
TAP	10	144	0
HLD	10	192	2	96
TAP	10	240	0
TAP	10	288	3
TAP	10	336	0
STR	10	336	4
SCL	10	336	4	96	48	1
XST	11	48	4
SCR	11	48	4	96	48	7
XTP	11	48	6
XTP	11	144	2
XST	11	144	4
SCL	11	144	4	96	48	1
XTP	11	240	4
XTP	11	240	6
TAP	11	336	5
HLD	12	0	5	96
TAP	12	48	7
HLD	12	96	4	96
TAP	12	144	7
TAP	12	192	5
BRK	12	240	0
BRK	12	240	7
BRK	12	288	0
BRK	12	288	7
HLD	13	0	2	48
TAP	13	0	4
HLD	13	96	2	48
TAP	13	96	5
HLD	13	192	2	48
TAP	13	192	4
HLD	13	288	2	48
TAP	13	336	3
HLD	14	0	2	48
TAP	14	0	4
HLD	14	96	2	48
TAP	14	96	5
HLD	14	192	2	48
TAP	14	192	4
HLD	14	288	2	48
TAP	14	336	3
HLD	15	0	2	48
TAP	15	0	4
HLD	15	96	2	48
TAP	15	96	5
HLD	15	192	2	48
TAP	15	192	4
TAP	15	288	2
TAP	15	288	3
TAP	15	336	4
STR	16	0	3
SI_	16	0	3	96	48	7
STR	16	0	5
SI_	16	0	5	96	48	7
STR	16	192	3
SI_	16	192	3	96	48	7
STR	16	192	5
SI_	16	192	5	96	48	7
TAP	17	0	3
HLD	17	0	5	48
TAP	17	96	2
HLD	17	96	5	48
TAP	17	192	3
HLD	17	192	5	48
HLD	17	288	5	48
TAP	17	336	4
TAP	18	0	3
HLD	18	0	5	48
TAP	18	96	2
HLD	18	96	5	48
TAP	18	192	3
HLD	18	192	5	48
HLD	18	288	5	48
TAP	18	336	4
TAP	19	0	3
HLD	19	0	5	48
TAP	19	96	2
HLD	19	96	5	48
TAP	19	192	4
TAP	19	192	5
TAP	19	240	3
TAP	19	240	6
TAP	19	288	2
STR	19	288	7
SUR	19	288	7	96	144	2
TTP	20	0	0	C	1	M1
TAP	20	288	3
TAP	20	288	4
BRK	21	0	5
TAP	21	48	4
TAP	21	96	3
TAP	21	96	6
TAP	21	144	7
TAP	21	192	2
TAP	21	240	3
TAP	21	288	1
TAP	21	288	4
TAP	21	336	0
TAP	22	0	5
TAP	22	48	4
TAP	22	96	3
TAP	22	96	6
TAP	22	144	7
STR	22	192	2
SCL	22	192	2	96	48	7
TAP	22	288	4
TAP	22	336	5
TAP	23	0	6
TAP	23	48	7
TAP	23	96	0
TAP	23	96	5
TAP	23	144	4
TAP	23	192	1
TAP	23	240	0
TAP	23	288	2
TAP	23	288	7
TAP	23	336	3
STR	24	0	4
SI_	24	0	4	96	48	0
STR	24	0	5
SI_	24	0	5	96	48	0
XTP	24	96	4
XTP	24	96	5
STR	24	192	4
SI_	24	192	4	96	48	0
STR	24	192	5
SI_	24	192	5	96	48	0
XTP	24	288	4
XTP	24	288	5
TAP	25	0	1
TAP	25	48	0
TAP	25	96	2
TAP	25	96	7
TAP	25	144	3
TAP	25	192	6
TAP	25	240	7
TAP	25	288	0
TAP	25	288	5
TAP	25	336	0
TAP	25	336	5
BRK	26	48	1
BRK	26	48	6
BRK	26	96	1
BRK	26	96	6
BRK	26	192	0
BRK	26	192	7
TAP	26	288	4
HLD	26	336	4	48
HLD	27	0	3	48
TTP	27	48	4	B	0	M1
TTP	27	96	3	B	0	M1
HLD	27	144	6	48
HLD	27	192	1	48
TTP	27	240	6	B	0	M1
TTP	27	288	1	B	0	M1
TAP	27	336	4
HLD	28	0	4	48
TAP	28	48	3
TAP	28	72	4
TAP	28	96	3
TAP	28	144	2
TAP	28	144	5
TAP	28	192	2
TAP	28	192	5
XTP	28	240	7
XTP	28	288	7
STR	29	0	1
SCR	29	0	1	96	192	6
STR	29	192	6
SCL	29	192	6	96	288	7
TAP	30	0	7
TAP	30	96	5
HLD	30	192	3	96
TAP	31	0	2
STR	31	0	6
SCL	31	0	6	96	192	1
STR	31	192	1
SCR	31	192	1	96	288	0
TAP	32	0	0
TAP	32	96	2
HLD	32	192	4	96
TTP	32	288	0	C	0	M1
TAP	33	0	0
HLD	33	0	7	96
HLD	33	96	5	96
HLD	33	192	3	96
HLD	33	288	1	96
TAP	34	0	0
TAP	34	48	7
TAP	34	96	6
TAP	34	144	5
TAP	34	192	2
TAP	34	192	4
TAP	34	288	1
TAP	34	288	5
STR	35	0	0
SV_	35	0	0	96	48	3
STR	35	48	0
SV_	35	48	0	96	48	5
STR	35	96	0
SI_	35	96	0	96	48	4
XTP	35	288	2
XTP	35	288	6
STR	36	0	7
SCL	36	0	7	96	144	1
STR	36	48	5
SCL	36	48	5	96	96	1
STR	36	96	3
SCL	36	96	3	96	48	1
XTP	36	288	0
XTP	36	288	7
TAP	37	0	2
TAP	37	0	6
TAP	37	48	2
TAP	37	48	6
STR	37	96	1
SI_	37	96	1	96	48	6
STR	37	96	5
SI_	37	96	5	96	48	2
XST	37	288	3
SCL	37	288	3	96	96	0
STR	38	0	0
SCL	38	0	0	96	96	5
STR	38	96	5
SCL	38	96	5	96	96	2
STR	38	192	2
SCL	38	192	2	96	96	7
STR	38	288	7
SCL	38	288	7	96	96	3
STR	39	0	3
SCL	39	0	3	96	96	7
STR	39	96	7
SCL	39	96	7	96	96	3
STR	39	192	3
SCL	39	192	3	96	96	7
STR	39	288	7
SUL	39	288	7	96	192	4
SUR	39	288	7	96	192	2
XST	40	288	0
SI_	40	288	0	96	48	3
SI_	40	288	0	96	48	5
XTP	40	288	7
BST	41	0	0
SI_	41	0	0	96	48	4
TAP	41	96	0
STR	41	192	2
SI_	41	192	2	96	48	7
STR	41	192	6
SI_	41	192	6	96	48	3
TAP	41	240	7
TAP	41	288	2
TAP	41	288	6
STR	42	0	1
SI_	42	0	1	96	48	4
STR	42	0	5
SI_	42	0	5	96	48	0
TAP	42	48	4
TAP	42	96	1
TAP	42	96	5
STR	42	192	3
SCL	42	192	3	96	48	0
STR	42	192	7
SCL	42	192	7	96	48	4
TAP	42	240	0
TAP	42	240	4
STR	42	288	3
SI_	42	288	3	96	48	7
TAP	42	288	7
BST	43	0	2
SXR	43	0	2	96	144	4
BRK	43	0	3
TAP	43	96	6
TAP	43	144	6
TAP	43	240	5
TAP	43	288	5
TAP	43	336	3
STR	44	0	6
SI_	44	0	6	96	48	0
STR	44	48	1
SI_	44	48	1	96	48	3
STR	44	96	6
SLL	44	96	6	96	96	7
TAP	44	144	1
TAP	44	192	6
TAP	44	240	2
TTP	44	288	0	C	1	M1
TAP	45	0	0
STR	45	0	7
SF_	45	0	7	96	48	3
TAP	45	96	7
STR	45	192	1
SI_	45	192	1	96	48	4
STR	45	192	5
SI_	45	192	5	96	48	0
TAP	45	240	4
TAP	45	288	1
TAP	45	288	5
STR	46	0	2
SI_	46	0	2	96	48	7
STR	46	0	6
SI_	46	0	6	96	48	3
TAP	46	48	7
TAP	46	96	2
TAP	46	96	6
STR	46	192	0
SCR	46	192	0	96	48	3
STR	46	192	4
SCR	46	192	4	96	48	7
TAP	46	240	3
TAP	46	240	7
TAP	46	288	0
STR	46	288	4
SF_	46	288	4	96	48	0
BRK	47	0	4
HLD	47	96	2	96
TAP	47	96	6
HLD	47	192	0	96
HLD	47	288	7	96
STR	48	0	4
SCL	48	0	4	96	96	0
STR	48	96	0
SCL	48	96	0	96	96	4
TAP	48	192	4
STR	48	288	3
SI_	48	288	3	96	48	0
STR	49	0	4
SI_	49	0	4	96	48	6
STR	49	96	3
SI_	49	96	3	96	48	1
STR	49	192	4
SI_	49	192	4	96	48	0
STR	49	288	3
SI_	49	288	3	96	48	7
STR	50	0	4
SI_	50	0	4	96	48	6
TAP	50	48	4
STR	50	96	3
SI_	50	96	3	96	48	1
TAP	50	144	3
STR	50	192	4
SI_	50	192	4	96	48	0
TAP	50	240	4
TAP	50	288	3
TAP	50	336	1
TAP	51	48	6
TAP	51	48	7
TAP	51	96	0
TAP	51	96	5
TAP	51	192	0
TAP	51	192	1
TAP	51	240	3
TAP	51	240	7
TAP	51	336	4
TAP	51	336	5
TAP	52	0	3
STR	52	0	7
SF_	52	0	7	96	48	3
BRK	52	96	7
TTP	52	108	1	B	0	M1
TTP	52	108	5	B	0	M1
TTP	52	112	0	C	0	M1
TAP	52	192	0
TAP	52	192	6
TAP	52	288	2
TAP	52	288	4
TAP	52	336	2
STR	52	336	4
SCL	52	336	4	96	48	1
XST	53	48	4
SCR	53	48	4	96	48	7
XTP	53	48	6
XTP	53	144	2
XST	53	144	4
SCL	53	144	4	96	48	1
XTP	53	240	4
XTP	53	240	6
TAP	53	336	5
HLD	54	0	5	96
TAP	54	48	7
HLD	54	96	4	96
TAP	54	144	7
HLD	54	192	5	96
TAP	54	240	7
TAP	54	288	4
STR	54	336	3
SCR	54	336	3	96	48	6
TAP	54	336	7
XTP	55	48	1
XST	55	48	3
SCL	55	48	3	96	48	0
XST	55	144	3
SCR	55	144	3	96	48	6
XTP	55	144	5
XTP	55	240	1
XTP	55	240	3
TAP	55	336	2
HLD	56	0	2	96
TAP	56	48	0
HLD	56	96	3	96
TAP	56	144	0
HLD	56	192	2	96
TAP	56	240	0
TAP	56	288	3
TTP	57	0	0	C	1	M1
BST	57	0	7
SCL	57	0	7	96	192	7
SCR	57	0	7	96	192	7
TAP	58	0	2
TAP	58	0	4
TAP	58	48	2
TAP	58	48	4
TAP	58	96	3
STR	58	96	5
SXL	58	96	5	96	96	6
SXR	58	96	5	96	96	4
TAP	58	192	5
TTP	59	0	0	C	1	M1
TTP	59	0	1	B	0	M1
BST	59	0	7
SCL	59	0	7	96	144	3
SUL	59	0	7	96	144	3
TAP	60	0	2
TAP	60	0	4
TAP	60	48	2
TAP	60	48	4
TAP	60	96	3
STR	60	96	5
SXL	60	96	5	96	96	6
SXR	60	96	5	96	96	4
TAP	60	192	5
TTP	61	0	0	C	1	M1
TTP	61	0	1	B	0	M1
TTP	61	0	2	B	0	M1
BST	61	0	7
SF_	61	0	7	96	144	3
TAP	62	0	2
TAP	62	0	4
TAP	62	48	2
TAP	62	48	4
TAP	62	96	1
STR	62	96	5
SXL	62	96	5	96	96	6
SXR	62	96	5	96	96	4
TAP	62	192	5
HLD	63	0	3	48
HLD	63	0	5	48
HLD	63	96	0	48
HLD	63	96	1	48
HLD	63	192	2	48
HLD	63	192	4	48
HLD	63	288	6	48
HLD	63	288	7	48
HLD	64	0	3	48
HLD	64	0	5	48
HLD	64	96	0	48
HLD	64	96	1	48
HLD	64	192	2	48
HLD	64	192	4	48
HLD	64	288	0	48
TAP	64	288	6
XTP	65	0	7
XTP	65	12	6
XTP	65	24	5
XTP	65	36	4
XTP	65	48	3
XTP	65	60	2
XTP	65	72	1
XTP	65	84	0
XTP	65	96	7
XTP	65	108	6
XTP	65	120	5
XTP	65	132	4
XTP	65	144	3
XTP	65	156	2
XTP	65	168	1
XTP	65	180	0
XTP	65	192	7
XTP	65	204	6
XTP	65	216	5
XTP	65	228	4
XTP	65	240	3
XTP	65	252	2
XTP	65	264	1
XTP	65	276	0
XST	65	288	7
SUL	65	288	7	96	192	4
SXL	65	288	7	96	192	3
XTP	65	300	6
XTP	65	312	5
XTP	65	324	4
XTP	65	336	3
XTP	65	348	2
XTP	65	360	1
XTP	65	372	0
TAP	66	288	3
TAP	66	288	4
TAP	67	0	0
HLD	67	0	7	1344
TTP	67	192	0	C	0	M1
TTP	67	192	2	B	0	M1
TTP	67	192	3	B	0	M1
TTP	68	0	0	B	0	M1
TTP	68	0	0	C	0	M1
TTP	68	0	1	B	0	M1
TTP	68	192	0	C	0	M1
TTP	68	192	6	B	0	M1
TTP	68	192	7	B	0	M1
TTP	69	0	0	C	0	M1
TTP	69	0	4	B	0	M1
TTP	69	0	5	B	0	M1
TTP	69	192	0	C	0	M1
TTP	69	192	2	B	0	M1
TTP	69	192	3	B	0	M1
TTP	70	0	0	B	0	M1
TTP	70	0	0	C	0	M1
TTP	70	0	1	B	0	M1
TTP	70	192	0	B	0	M1
TTP	70	192	0	E	0	M1
TTP	70	192	7	B	0	M1
STR	71	0	4
SCR	71	0	4	96	192	7
STR	71	192	3
SCL	71	192	3	96	192	0
STR	72	0	4
SCR	72	0	4	96	192	7
TAP	72	192	1
HLD	72	288	2	96
THO	73	0	0	576	C	0	M1
TTP	73	96	4	E	0	M1
TTP	73	192	3	E	0	M1
TTP	73	288	2	E	0	M1
TTP	74	0	1	E	0	M1
TTP	74	96	0	E	0	M1
TTP	74	192	1	E	0	M1
TTP	74	192	7	E	0	M1
HLD	75	0	3	48
HLD	75	0	5	48
HLD	75	96	2	48
HLD	75	96	4	48
HLD	75	192	3	48
HLD	75	192	5	48
HLD	75	288	2	48
HLD	75	288	4	48
TAP	76	0	3
TAP	76	24	4
TAP	76	48	3
TAP	76	72	4
STR	76	96	3
SCL	76	96	3	96	168	4
TAP	77	48	3
TAP	77	48	4
TAP	77	96	3
TAP	77	96	4
TAP	77	144	2
TAP	77	144	5
TAP	77	192	2
TAP	77	192	5
TAP	77	240	1
TAP	77	240	6
TAP	77	288	0
STR	77	288	7
SI_	77	288	7	96	48	2
SI_	77	288	7	96	48	4
BST	78	0	7
SI_	78	0	7	96	48	3
TAP	78	96	7
STR	78	192	1
SCR	78	192	1	96	48	4
STR	78	192	5
SCR	78	192	5	96	48	0
TAP	78	240	0
TAP	78	240	4
TAP	78	288	1
TAP	78	288	5
STR	79	0	2
SI_	79	0	2	96	48	7
TAP	79	0	6
TAP	79	48	1
TAP	79	48	5
TAP	79	96	2
TAP	79	96	4
TAP	79	144	3
STR	79	192	2
SI_	79	192	2	96	48	0
TAP	79	192	4
TAP	79	240	1
TAP	79	240	5
TAP	79	288	2
TAP	79	288	6
TAP	79	336	7
STR	80	0	2
SI_	80	0	2	96	48	7
TAP	80	0	6
TAP	80	48	1
TAP	80	48	5
TAP	80	96	2
TAP	80	96	4
TAP	80	144	3
STR	80	192	2
SI_	80	192	2	96	48	0
TAP	80	192	4
TAP	80	240	1
TAP	80	240	5
TAP	80	288	2
TAP	80	288	6
TAP	80	336	7
XST	81	0	0
SI_	81	0	0	96	48	4
STR	81	48	7
SI_	81	48	7	96	48	3
STR	81	96	0
SCR	81	96	0	96	48	3
STR	81	144	7
SCL	81	144	7	96	48	4
TAP	81	192	0
TAP	81	240	7
TTP	81	288	0	C	1	M1
TTP	81	288	1	B	0	M1
TTP	81	288	2	B	0	M1
XST	82	0	0
SF_	82	0	0	96	48	4
XTP	82	0	7
TAP	82	96	0
STR	82	192	2
SI_	82	192	2	96	48	7
STR	82	192	6
SI_	82	192	6	96	48	3
TAP	82	240	3
TAP	82	240	7
TAP	82	288	2
TAP	82	288	6
STR	83	0	1
SI_	83	0	1	96	48	4
STR	83	0	5
SI_	83	0	5	96	48	0
TAP	83	48	0
TAP	83	48	4
TAP	83	96	1
TAP	83	96	5
STR	83	192	3
SCL	83	192	3	96	48	0
STR	83	192	7
SCL	83	192	7	96	48	4
TAP	83	240	0
TAP	83	240	4
STR	83	288	3
SF_	83	288	3	96	48	7
TAP	83	288	7
BRK	84	0	3
TAP	84	96	1
HLD	84	96	5	96
HLD	84	192	7	96
HLD	84	288	0	96
STR	85	0	3
SCR	85	0	3	96	96	7
STR	85	96	7
SCR	85	96	7	96	96	3
TAP	85	192	3
STR	85	288	4
SI_	85	288	4	96	48	7
STR	86	0	3
SI_	86	0	3	96	48	1
STR	86	96	4
SI_	86	96	4	96	48	6
STR	86	192	3
SI_	86	192	3	96	48	7
STR	86	288	4
SI_	86	288	4	96	48	0
STR	87	0	3
SI_	87	0	3	96	48	1
TAP	87	48	2
STR	87	96	4
SI_	87	96	4	96	48	6
TAP	87	144	5
STR	87	192	3
SI_	87	192	3	96	48	7
TAP	87	240	2
TAP	87	288	4
TTP	87	336	0	C	1	M1
TAP	88	48	0
TAP	88	48	1
TAP	88	96	3
TAP	88	96	7
TAP	88	192	4
TAP	88	192	5
STR	88	240	3
SI_	88	240	3	96	48	0
STR	88	240	7
SI_	88	240	7	96	48	4
TAP	88	336	3
TAP	88	336	7
TAP	89	48	2
TAP	89	48	3
TAP	89	96	0
TAP	89	96	4
TAP	89	192	4
TAP	89	192	5
STR	89	240	3
SI_	89	240	3	96	48	0
SI_	89	240	3	96	48	0
STR	89	240	7
SI_	89	240	7	96	48	4
SI_	89	240	7	96	48	4
TAP	89	336	3
TAP	89	336	7
TAP	90	48	2
TAP	90	48	3
STR	90	96	0
SCR	90	96	0	96	48	3
STR	90	96	4
SCR	90	96	4	96	48	7
TAP	90	192	0
TAP	90	192	4
TAP	90	288	0
TAP	90	288	4
TAP	90	336	3
TAP	90	336	7
TAP	91	0	2
STR	91	0	6
SXL	91	0	6	96	96	7
SXR	91	0	6	96	96	5
STR	91	288	4
SF_	91	288	4	96	48	0
SF_	91	288	4	96	48	0
SF_	91	288	4	96	48	0
BRK	92	0	4
TTP	92	12	0	C	1	M1
TTP	92	12	6	B	0	M1
TTP	92	16	2	B	0	M1

T_REC_TAP	295
T_REC_BRK	17
T_REC_XTP	66
T_REC_HLD	84
T_REC_XHO	1
T_REC_STR	104
T_REC_BST	6
T_REC_XST	16
T_REC_TTP	72
T_REC_THO	1
T_REC_SLD	140
T_REC_ALL	802
T_NUM_TAP	553
T_NUM_BRK	23
T_NUM_HLD	86
T_NUM_SLD	140
T_NUM_ALL	802
T_JUDGE_TAP	576
T_JUDGE_HLD	159
T_JUDGE_SLD	140
T_JUDGE_ALL	875
TTM_EACHPAIRS	174
TTM_SCR_TAP	276500
TTM_SCR_BRK	59800
TTM_SCR_HLD	86000
TTM_SCR_SLD	210000
TTM_SCR_ALL	632300
TTM_SCR_S	611100
TTM_SCR_SS	630000
TTM_RAT_ACV	10036

