VERSION	0.00.00	1.03.00
FES_MODE	0
BPM_DEF	150.000	150.000	150.000	150.000
MET_DEF	4	4
RESOLUTION	384
CLK_DEF	384
COMPATIBLE_CODE	MA2

BPM	0	0	150.000
MET	0	0	4	4

TAP	4	0	3
TAP	4	96	4
TAP	4	192	3
TAP	4	288	3
TAP	4	288	4
XTP	5	0	2
XTP	5	0	4
XHO	5	48	2	240
XHO	5	48	4	240
XTP	6	0	3
XTP	6	0	5
XTP	6	48	3
XTP	6	48	5
TAP	6	192	4
TAP	6	288	3
XTP	7	0	2
XTP	7	0	4
XHO	7	48	2	240
XHO	7	48	4	240
STR	8	0	3
SF_	8	0	3	96	96	7
XTP	8	288	1
XTP	8	288	5
TAP	9	0	0
TAP	9	48	0
TAP	9	144	1
TAP	9	144	7
TAP	9	240	0
TAP	9	240	6
TAP	9	336	1
TAP	9	336	7
XTP	10	0	1
XTP	10	0	7
TAP	10	96	2
TAP	10	192	3
TAP	10	288	4
TAP	11	0	7
TAP	11	48	7
TAP	11	144	0
TAP	11	144	6
TAP	11	240	1
TAP	11	240	7
TAP	11	336	0
TAP	11	336	6
XTP	12	0	0
XTP	12	0	6
TAP	12	96	5
TAP	12	192	4
TAP	12	288	3
TAP	12	288	4
XTP	13	0	1
TAP	13	96	2
TAP	13	192	3
TAP	13	288	4
TAP	13	288	5
TAP	14	0	6
TAP	14	96	5
TAP	14	192	4
TAP	14	288	2
TAP	14	288	3
TAP	15	0	1
TAP	15	96	2
TAP	15	192	3
TAP	15	288	4
TAP	15	288	5
HLD	16	0	4	96
TAP	16	0	6
TAP	16	96	6
TAP	16	192	1
HLD	16	192	3	96
TAP	16	288	1
XTP	17	0	6
TAP	17	96	5
TAP	17	192	4
TAP	17	288	2
TAP	17	288	3
TAP	18	0	1
TAP	18	96	2
TAP	18	192	3
TAP	18	288	4
TAP	18	288	5
TAP	19	0	6
TAP	19	96	5
TAP	19	192	4
TAP	19	288	2
TAP	19	288	3
STR	20	0	1
SUR	20	0	1	96	192	2
TAP	21	0	4
TAP	21	48	4
TAP	21	96	3
HLD	21	192	2	96
TAP	21	192	3
HLD	21	288	1	96
HLD	22	0	0	96
STR	22	96	7
SCL	22	96	7	96	96	4
TAP	23	0	3
TAP	23	48	3
TAP	23	96	4
TAP	23	192	4
TAP	23	192	5
TAP	23	288	5
TAP	23	288	6
TAP	24	0	6
HLD	24	0	7	96
TAP	24	96	6
HLD	24	192	0	96
TAP	24	192	1
TAP	24	288	1
TAP	25	0	7
TAP	25	48	7
HLD	25	96	0	96
HLD	25	192	1	96
HLD	25	288	2	96
HLD	26	0	3	96
BRK	26	96	4
BRK	26	192	2
BRK	26	192	6
TAP	27	0	5
TAP	27	96	4
TAP	27	96	6
TAP	27	192	2
TAP	27	288	1
TAP	27	288	3
TAP	28	0	3
TAP	28	0	4
TAP	28	96	2
TAP	28	96	5
TAP	28	192	1
TAP	28	192	6
XTP	28	240	0
XTP	28	288	0
STR	29	0	7
SSR	29	0	7	96	192	3
TAP	30	0	2
TAP	30	0	4
STR	30	96	1
SCR	30	96	1	96	96	3
STR	30	96	5
SCL	30	96	5	96	96	3
STR	31	0	0
SSL	31	0	0	96	192	4
TAP	32	0	3
TAP	32	0	5
STR	32	96	4
SXL	32	96	4	96	96	6
SXR	32	96	4	96	96	2
HLD	33	0	5	192
TAP	33	96	4
HLD	33	192	2	192
TAP	33	288	3
HLD	34	0	6	192
TAP	34	96	4
HLD	34	192	1	192
TAP	34	288	3
XST	35	0	6
SF_	35	0	6	96	192	2
XST	36	0	1
SF_	36	0	1	96	192	5
XST	37	0	3
SCL	37	0	3	96	192	0
XST	37	0	4
SCR	37	0	4	96	192	7
XHO	38	0	1	576
XTP	38	0	5
TAP	38	96	4
TAP	38	192	3
TAP	38	288	2
THO	39	0	0	288	C	0	M1
STR	40	0	0
SUR	40	0	0	96	192	2
XTP	41	0	3
XTP	41	0	4
TAP	41	96	0
TAP	41	96	7
TAP	41	192	3
TAP	41	192	5
TAP	41	288	0
TAP	41	288	6
TAP	42	0	2
TAP	42	0	4
TAP	42	96	1
TAP	42	96	7
TAP	42	192	3
TAP	42	192	5
TAP	42	288	0
TAP	42	288	6
TAP	43	0	2
TAP	43	0	3
TAP	43	96	0
TAP	43	96	1
TAP	43	192	6
TAP	43	192	7
TAP	43	288	4
TAP	43	288	5
TAP	44	0	2
TAP	44	0	3
TAP	44	96	1
TAP	44	96	4
XTP	44	192	0
XTP	44	192	5
XTP	44	240	0
XTP	44	240	5
XTP	44	288	0
XTP	44	288	5
TAP	45	0	3
TAP	45	0	4
TAP	45	96	0
TAP	45	96	7
TAP	45	192	3
TAP	45	192	5
TAP	45	288	0
TAP	45	288	6
TAP	46	0	2
TAP	46	0	4
TAP	46	96	1
TAP	46	96	7
TAP	46	192	3
TAP	46	192	5
TAP	46	288	0
TAP	46	288	6
BRK	47	0	1
BRK	47	0	5
HLD	47	96	3	96
HLD	47	192	4	96
HLD	47	288	5	96
HLD	48	0	6	96
HLD	48	96	7	96
HLD	48	192	0	96
TAP	48	288	1
STR	49	0	2
SI_	49	0	2	96	48	0
TAP	49	0	3
TAP	49	192	4
STR	49	192	5
SI_	49	192	5	96	48	7
STR	50	0	2
SI_	50	0	2	96	48	7
TAP	50	0	3
TAP	50	192	4
STR	50	192	5
SI_	50	192	5	96	48	0
XTP	51	48	2
XTP	51	48	7
XTP	51	96	2
XTP	51	96	7
XTP	51	192	3
XTP	51	192	6
XTP	51	240	3
XTP	51	240	6
XTP	51	336	4
XTP	51	336	5
XTP	52	0	4
XTP	52	0	5
XTP	52	96	0
XTP	52	96	7
XTP	52	192	2
XTP	52	192	3
BRK	52	288	1
BRK	52	288	5
TAP	53	0	6
TAP	53	48	6
TAP	53	144	0
TAP	53	144	5
TAP	53	240	2
TAP	53	240	7
TAP	53	336	0
TAP	53	336	5
TAP	54	0	0
TAP	54	0	5
TAP	54	96	4
TAP	54	192	3
TAP	54	288	2
TAP	55	0	1
TAP	55	48	1
TAP	55	144	2
TAP	55	144	7
TAP	55	240	0
TAP	55	240	5
TAP	55	336	2
TAP	55	336	7
TAP	56	0	2
TAP	56	0	7
TAP	56	96	3
TAP	56	192	4
TAP	56	288	2
TAP	56	288	5
XHO	57	0	1	288
TAP	58	0	4
TAP	58	48	4
TAP	58	96	3
TAP	58	96	5
TTP	58	192	4	B	0	M1
TTP	58	192	5	B	0	M1
TTP	58	192	5	E	0	M1
XHO	59	0	1	288
XHO	59	0	7	288
TAP	60	0	3
TAP	60	48	3
TAP	60	96	2
TAP	60	96	4
TTP	60	192	2	B	0	M1
TTP	60	192	3	B	0	M1
TTP	60	192	3	E	0	M1
XST	61	0	7
SI_	61	0	7	96	192	3
TAP	62	0	4
TAP	62	48	4
TAP	62	96	3
TAP	62	96	5
TTP	62	192	4	B	0	M1
TTP	62	192	5	B	0	M1
TTP	62	192	5	E	0	M1
TTP	63	0	3	E	0	M1
TTP	63	96	0	B	0	M1
TTP	63	96	1	B	0	M1
TTP	63	96	1	E	0	M1
TTP	63	192	5	E	0	M1
TTP	63	288	6	B	0	M1
TTP	63	288	7	B	0	M1
TTP	63	288	7	E	0	M1
TTP	64	0	3	E	0	M1
TTP	64	96	0	B	0	M1
TTP	64	96	1	B	0	M1
TTP	64	96	1	E	0	M1
TTP	64	192	4	E	0	M1
TTP	64	288	2	B	0	M1
TTP	64	288	5	B	0	M1
XTP	65	0	0
XTP	65	48	0
XTP	65	96	7
XTP	65	144	7
XTP	65	192	0
XTP	65	240	0
XTP	65	288	7
XTP	65	336	7
XST	66	0	0
SUR	66	0	0	96	192	2
STR	67	0	6
SUR	67	0	6	96	192	3
STR	68	0	1
SUL	68	0	1	96	192	4
STR	69	0	6
SUR	69	0	6	96	192	3
TAP	70	0	2
TAP	70	96	3
TAP	70	192	4
TAP	70	240	4
TAP	70	288	4
HLD	71	0	2	96
TAP	71	0	3
TAP	71	192	4
HLD	71	192	5	96
HLD	72	0	1	96
TAP	72	0	3
TAP	72	192	4
HLD	72	192	6	96
TAP	73	0	1
TTP	73	96	1	B	0	M1
TTP	73	192	2	B	0	M1
TTP	73	288	3	B	0	M1
TTP	74	0	4	B	0	M1
TTP	74	96	5	B	0	M1
TTP	74	192	6	B	0	M1
HLD	75	0	0	48
HLD	75	0	1	48
HLD	75	96	2	48
HLD	75	96	7	48
HLD	75	192	3	48
HLD	75	192	6	48
HLD	75	288	4	48
HLD	75	288	5	48
XST	76	0	4
SXR	76	0	4	96	192	1
XST	76	0	5
SXL	76	0	5	96	192	0
XTP	77	0	2
XTP	77	0	7
XTP	77	48	2
XTP	77	48	7
XTP	77	144	4
XTP	77	144	5
XTP	77	192	4
XTP	77	192	5
BRK	77	288	1
BRK	77	288	6
TAP	78	0	3
TAP	78	0	4
TAP	78	96	0
TAP	78	96	7
TAP	78	192	4
TAP	78	192	5
TAP	78	288	0
TAP	78	288	6
TAP	79	0	2
TAP	79	0	3
TAP	79	96	1
TAP	79	96	7
TAP	79	192	4
TAP	79	192	5
TAP	79	288	0
TAP	79	288	6
TAP	80	0	2
TAP	80	0	3
TAP	80	96	0
TAP	80	96	1
TAP	80	192	6
TAP	80	192	7
TAP	80	288	4
TAP	80	288	5
TAP	81	0	2
TAP	81	0	3
TAP	81	96	1
TAP	81	96	4
XTP	81	192	0
XTP	81	192	5
XTP	81	240	0
XTP	81	240	5
XTP	81	288	0
XTP	81	288	5
TAP	82	0	3
TAP	82	0	4
TAP	82	96	0
TAP	82	96	7
TAP	82	192	4
TAP	82	192	5
TAP	82	288	0
TAP	82	288	6
TAP	83	0	2
TAP	83	0	3
TAP	83	96	1
TAP	83	96	7
TAP	83	192	4
TAP	83	192	5
TAP	83	288	0
TAP	83	288	6
BRK	84	0	1
BRK	84	0	5
HLD	84	96	3	96
HLD	84	192	4	96
HLD	84	288	5	96
HLD	85	0	6	96
HLD	85	96	7	96
HLD	85	192	0	96
TAP	85	288	1
STR	86	0	2
SI_	86	0	2	96	48	0
HLD	86	0	3	96
HLD	86	192	4	96
STR	86	192	5
SI_	86	192	5	96	48	7
STR	87	0	2
SI_	87	0	2	96	48	7
HLD	87	0	3	96
HLD	87	192	4	96
STR	87	192	5
SI_	87	192	5	96	48	0
XTP	88	48	1
XTP	88	48	7
XTP	88	96	1
XTP	88	96	7
XTP	88	192	2
XTP	88	192	6
XTP	88	240	2
XTP	88	240	6
XTP	88	336	3
XTP	88	336	5
XTP	89	48	0
XTP	89	48	6
XTP	89	96	0
XTP	89	96	6
XTP	89	192	1
XTP	89	192	5
XTP	89	240	1
XTP	89	240	5
XTP	89	336	2
XTP	89	336	4
XTP	90	48	3
XTP	90	48	5
XTP	90	96	3
XTP	90	96	5
XTP	90	192	2
XTP	90	192	6
XTP	90	288	1
XTP	90	288	7
STR	91	0	0
SCR	91	0	0	96	96	3
STR	91	0	5
SCR	91	0	5	96	96	0
TTP	91	288	0	C	1	M1
TTP	91	288	2	B	0	M1
TTP	91	288	6	B	0	M1

T_REC_TAP	243
T_REC_BRK	11
T_REC_XTP	93
T_REC_HLD	43
T_REC_XHO	8
T_REC_STR	22
T_REC_BST	0
T_REC_XST	8
T_REC_TTP	33
T_REC_THO	1
T_REC_SLD	31
T_REC_ALL	493
T_NUM_TAP	399
T_NUM_BRK	11
T_NUM_HLD	52
T_NUM_SLD	31
T_NUM_ALL	493
T_JUDGE_TAP	410
T_JUDGE_HLD	142
T_JUDGE_SLD	31
T_JUDGE_ALL	583
TTM_EACHPAIRS	152
TTM_SCR_TAP	199500
TTM_SCR_BRK	28600
TTM_SCR_HLD	52000
TTM_SCR_SLD	46500
TTM_SCR_ALL	326600
TTM_SCR_S	315750
TTM_SCR_SS	325500
TTM_RAT_ACV	10033

