VERSION	0.00.00	1.03.00
FES_MODE	0
BPM_DEF	150.000	150.000	150.000	150.000
MET_DEF	4	4
RESOLUTION	384
CLK_DEF	384
COMPATIBLE_CODE	MA2

BPM	0	0	150.000
MET	0	0	4	4

STR	1	0	5
SI_	1	0	5	96	144	2
TAP	2	0	1
TAP	2	192	1
STR	3	0	2
SI_	3	0	2	96	144	5
TAP	4	0	6
TAP	4	96	6
TAP	4	192	5
TAP	4	288	4
XST	5	0	3
SI_	5	0	3	96	144	0
STR	6	0	7
SI_	6	0	7	96	144	4
STR	7	0	3
SI_	7	0	3	96	144	0
HLD	8	0	7	288
XTP	8	288	0
TAP	9	0	1
TAP	9	96	1
TAP	9	192	0
TAP	9	288	0
TAP	10	0	7
TAP	10	96	7
TAP	10	192	0
TAP	10	192	6
TAP	11	0	5
TAP	11	96	5
TAP	11	192	4
TAP	11	288	4
TAP	12	0	3
TAP	12	96	3
TAP	12	192	3
TAP	12	192	4
HLD	13	0	2	192
TAP	13	192	3
HLD	14	0	5	192
TAP	14	192	4
HLD	15	0	2	192
TAP	15	192	3
XTP	16	0	4
XTP	16	0	5
XTP	16	96	4
XTP	16	96	5
XTP	16	192	4
XTP	16	192	5
HLD	17	0	6	192
TAP	17	192	7
HLD	18	0	1	192
TAP	18	192	0
HLD	19	0	7	192
TAP	19	192	0
TTP	20	0	0	C	1	L1
TTP	20	0	2	B	0	L1
TTP	20	0	5	B	0	L1
TAP	21	0	7
TAP	21	96	7
TAP	21	192	0
TAP	21	192	7
TAP	22	0	1
TAP	22	96	1
TAP	22	192	0
TAP	22	192	1
TAP	23	0	6
TAP	23	96	6
TAP	23	192	6
TAP	23	192	7
XTP	24	0	0
XTP	24	0	1
XTP	24	96	0
XTP	24	96	1
XTP	24	192	0
XTP	24	192	1
TAP	25	0	2
TAP	25	96	2
TAP	25	192	2
TAP	25	192	3
TAP	26	0	5
TAP	26	96	5
TAP	26	192	4
TAP	26	192	5
TAP	27	0	2
TAP	27	96	2
TAP	27	96	3
TAP	27	192	5
TAP	27	288	4
TAP	27	288	5
TAP	28	0	3
TAP	28	96	3
TAP	28	96	4
TAP	28	192	2
TAP	28	192	5
STR	29	0	5
SCR	29	0	5	96	144	0
TAP	30	0	1
TAP	30	96	1
TAP	30	192	0
TAP	30	192	1
STR	31	0	2
SCL	31	0	2	96	144	7
TAP	32	0	6
TAP	32	96	6
TAP	32	192	6
TAP	32	192	7
TAP	33	0	5
TAP	33	96	5
TAP	33	192	4
TAP	33	288	4
TAP	34	0	3
TAP	34	96	3
TAP	34	192	2
TAP	34	192	4
XST	35	0	1
SUR	35	0	1	96	144	5
XST	36	0	6
SUL	36	0	6	96	144	2
XST	37	0	1
SCR	37	0	1	96	144	4
TAP	38	0	5
TAP	38	96	5
TAP	38	192	4
TAP	38	288	4
TAP	39	0	3
TAP	39	96	3
TAP	39	192	2
STR	39	288	2
SCL	39	288	2	96	144	7
XTP	40	288	0
XTP	40	288	7
TAP	41	0	6
TAP	41	96	6
TAP	41	192	6
TAP	41	192	7
TAP	41	288	6
TAP	41	288	7
TAP	42	0	0
TAP	42	0	7
TAP	42	96	0
TAP	42	96	7
TAP	42	192	0
TAP	42	192	1
TAP	42	288	0
TAP	42	288	1
TAP	43	0	2
TAP	43	96	2
TAP	43	192	3
TAP	43	288	3
TAP	44	0	4
TAP	44	96	4
TAP	44	192	3
TAP	44	192	5
TAP	45	0	2
TAP	45	96	2
TAP	45	192	2
TAP	45	192	3
TAP	45	288	2
TAP	45	288	3
TAP	46	0	3
TAP	46	0	4
TAP	46	96	3
TAP	46	96	4
TAP	46	192	4
TAP	46	192	5
TAP	46	288	4
TAP	46	288	5
TAP	47	0	6
TAP	47	96	6
TAP	47	192	7
TAP	47	288	7
TAP	48	0	0
TAP	48	96	0
TAP	48	192	1
TAP	48	288	1
TAP	49	0	2
TAP	49	96	3
TAP	49	192	4
TAP	49	288	5
TAP	50	0	6
TAP	50	96	7
TAP	50	192	0
TAP	50	192	7
TAP	51	0	1
TAP	51	0	6
XTP	51	96	1
XTP	51	96	6
TAP	51	192	2
TAP	51	192	5
XTP	51	288	2
XTP	51	288	5
STR	52	0	3
SI_	52	0	3	96	144	0
STR	52	0	4
SI_	52	0	4	96	144	7
TAP	53	0	1
TAP	53	96	1
TAP	53	192	0
TAP	53	288	0
TAP	54	0	7
TAP	54	96	7
TAP	54	192	0
TAP	54	192	6
TAP	55	0	1
TAP	55	96	1
TAP	55	192	2
TAP	55	288	2
TAP	56	0	3
TAP	56	96	3
TAP	56	192	3
TAP	56	192	4
TTP	57	0	0	C	1	L1
XTP	58	0	0
XTP	58	0	7
XTP	58	96	0
XTP	58	96	7
XTP	58	192	0
XTP	58	192	7
TTP	59	0	0	C	1	L1
TTP	59	0	1	B	0	L1
XTP	60	0	0
XTP	60	0	7
XTP	60	96	0
XTP	60	96	7
XTP	60	192	0
XTP	60	192	7
TTP	61	0	0	C	1	L1
TTP	61	0	1	B	0	L1
TTP	61	0	6	B	0	L1
XTP	62	0	0
XTP	62	0	7
XTP	62	96	0
XTP	62	96	7
XTP	62	192	0
XTP	62	192	7
XTP	63	0	0
TAP	63	96	1
XTP	63	192	2
TAP	63	288	3
XTP	64	0	4
TAP	64	96	5
XTP	64	192	6
TAP	64	288	7
THO	65	0	0	384	C	1	L1
TTP	67	0	0	E	0	L1
TTP	68	0	1	E	0	L1
TTP	69	0	2	E	0	L1
TTP	70	0	3	E	0	L1
TTP	71	0	4	E	0	L1
TTP	72	0	5	E	0	L1
TTP	73	0	6	E	0	L1
TTP	74	0	7	E	0	L1
TTP	75	0	0	E	0	L1
TTP	76	0	0	C	1	L1
XTP	77	0	0
XTP	77	0	7
XTP	77	96	0
XTP	77	96	7
XTP	77	192	0
XTP	77	192	7
TAP	78	0	6
BRK	78	96	6
TAP	78	192	6
TAP	78	192	7
TAP	78	288	6
TAP	78	288	7
TAP	79	0	4
TAP	79	0	5
TAP	79	96	4
TAP	79	96	5
TAP	79	192	3
TAP	79	192	4
TAP	79	288	3
TAP	79	288	4
TAP	80	0	2
TAP	80	96	2
TAP	80	96	3
TAP	80	192	2
TAP	80	288	2
TAP	80	288	3
TAP	81	0	1
TAP	81	96	0
TAP	81	192	0
TAP	81	192	7
TAP	82	0	1
TAP	82	96	1
TAP	82	192	0
TAP	82	192	1
TAP	82	288	0
TAP	82	288	1
TAP	83	0	2
TAP	83	0	3
TAP	83	96	2
TAP	83	96	3
TAP	83	192	3
TAP	83	192	4
TAP	83	288	3
TAP	83	288	4
TAP	84	0	5
TAP	84	96	5
TAP	84	192	4
TAP	84	288	4
TAP	85	0	3
TAP	85	96	3
TAP	85	192	2
TAP	85	288	2
TAP	86	0	1
TAP	86	96	0
TAP	86	192	7
TAP	86	288	6
TAP	87	0	5
TAP	87	96	4
TAP	87	192	3
TAP	87	288	2
TAP	88	0	1
TAP	88	0	3
TAP	88	96	1
TAP	88	96	3
TAP	88	192	1
TAP	88	192	3
TAP	89	0	4
TAP	89	0	6
TAP	89	96	4
TAP	89	96	6
TAP	89	192	4
TAP	89	192	6
TAP	90	0	2
TAP	90	96	2
TAP	90	96	3
TAP	90	192	5
TAP	90	288	4
TAP	90	288	5
STR	91	0	3
SF_	91	0	3	96	192	7
TTP	92	0	0	C	1	L1

T_REC_TAP	229
T_REC_BRK	1
T_REC_XTP	47
T_REC_HLD	7
T_REC_XHO	0
T_REC_STR	10
T_REC_BST	0
T_REC_XST	4
T_REC_TTP	20
T_REC_THO	1
T_REC_SLD	14
T_REC_ALL	333
T_NUM_TAP	310
T_NUM_BRK	1
T_NUM_HLD	8
T_NUM_SLD	14
T_NUM_ALL	333
T_JUDGE_TAP	311
T_JUDGE_HLD	38
T_JUDGE_SLD	14
T_JUDGE_ALL	363
TTM_EACHPAIRS	77
TTM_SCR_TAP	155000
TTM_SCR_BRK	2600
TTM_SCR_HLD	8000
TTM_SCR_SLD	21000
TTM_SCR_ALL	186600
TTM_SCR_S	180950
TTM_SCR_SS	186500
TTM_RAT_ACV	10005

