VERSION	0.00.00	1.03.00
FES_MODE	0
BPM_DEF	140.000	140.000	140.000	140.000
MET_DEF	4	4
RESOLUTION	384
CLK_DEF	384
COMPATIBLE_CODE	MA2

BPM	0	0	140.000
MET	0	0	4	4

STR	1	0	6
SCL	1	0	6	96	48	3
TAP	1	96	2
TAP	1	144	1
STR	1	192	0
SCR	1	192	0	96	48	3
TAP	1	288	4
TAP	1	336	5
STR	2	0	6
SCL	2	0	6	96	48	3
TAP	2	96	2
HLD	2	192	0	96
TAP	2	288	3
STR	3	0	1
SCR	3	0	1	96	48	4
TAP	3	96	5
TAP	3	144	6
STR	3	192	7
SCL	3	192	7	96	48	4
TAP	3	288	3
TAP	3	336	2
STR	4	0	1
SCR	4	0	1	96	48	4
TAP	4	96	5
HLD	4	192	7	96
TAP	4	288	4
STR	5	0	2
SCL	5	0	2	96	48	7
TAP	5	96	6
TAP	5	144	5
STR	5	192	4
SCR	5	192	4	96	48	7
TAP	5	288	0
TAP	5	336	1
STR	6	0	2
SCL	6	0	2	96	48	7
TAP	6	96	6
HLD	6	192	4	96
TAP	6	288	7
STR	7	0	5
SCR	7	0	5	96	48	0
TAP	7	96	1
TAP	7	144	2
STR	7	192	3
SCL	7	192	3	96	48	0
TAP	7	288	7
TAP	7	336	6
STR	8	0	5
SI_	8	0	5	96	48	1
STR	8	96	0
SCR	8	96	0	96	96	6
BRK	8	192	7
HLD	9	0	0	576
TTP	10	0	2	B	0	M1
TTP	10	0	2	E	0	M1
TTP	10	96	0	C	0	M1
TTP	10	192	6	B	0	M1
TTP	10	192	6	E	0	M1
HLD	11	0	7	576
TTP	12	0	6	B	0	M1
TTP	12	0	6	E	0	M1
TTP	12	96	2	B	0	M1
TTP	12	96	2	E	0	M1
TTP	12	192	4	B	0	M1
TTP	12	192	4	E	0	M1
TAP	13	0	0
STR	13	48	0
SI_	13	48	0	96	48	4
TAP	13	144	4
TAP	13	192	5
STR	13	240	6
SI_	13	240	6	96	48	2
TAP	13	336	2
TAP	14	0	1
STR	14	48	0
SI_	14	48	0	96	48	3
TAP	14	144	3
TAP	14	192	4
TAP	14	288	2
TAP	14	288	5
TAP	15	0	7
STR	15	48	7
SI_	15	48	7	96	48	3
TAP	15	144	3
TAP	15	192	2
STR	15	240	1
SI_	15	240	1	96	48	5
TAP	15	336	5
TAP	16	0	6
STR	16	48	7
SI_	16	48	7	96	48	4
TAP	16	144	4
TAP	16	192	3
BRK	16	288	2
BRK	16	288	5
XST	17	0	1
SCL	17	0	1	96	96	6
TAP	17	72	3
TAP	17	144	5
XST	17	192	5
SCR	17	192	5	96	96	0
TAP	17	264	3
TAP	17	336	1
XST	18	0	1
SI_	18	0	1	96	48	6
TAP	18	96	1
STR	18	96	5
SI_	18	96	5	96	48	2
STR	18	192	0
SI_	18	192	0	96	48	3
SI_	18	192	0	96	48	5
TAP	18	192	5
TAP	18	288	0
XST	19	0	6
SCR	19	0	6	96	96	1
TAP	19	72	4
TAP	19	144	2
XST	19	192	2
SCL	19	192	2	96	96	7
TAP	19	264	4
TAP	19	336	6
XST	20	0	6
SI_	20	0	6	96	48	2
STR	20	96	3
SI_	20	96	3	96	48	0
SI_	20	96	3	96	48	6
TAP	20	96	6
TAP	20	192	3
XTP	20	288	0
XTP	20	288	6
XST	21	0	5
SCL	21	0	5	96	96	2
TAP	21	72	7
TAP	21	144	1
XST	21	192	1
SCR	21	192	1	96	96	4
TAP	21	264	7
TAP	21	336	5
XST	22	0	5
SI_	22	0	5	96	48	0
STR	22	96	1
SI_	22	96	1	96	48	4
TAP	22	96	5
TAP	22	192	1
STR	22	192	7
SI_	22	192	7	96	48	3
SV_	22	192	7	96	48	4
TAP	22	288	7
XST	23	0	2
SCR	23	0	2	96	96	5
TAP	23	72	0
TAP	23	144	6
XST	23	192	6
SCL	23	192	6	96	96	3
TAP	23	264	0
TAP	23	336	2
XST	24	0	2
SI_	24	0	2	96	48	6
TAP	24	96	2
STR	24	96	7
SI_	24	96	7	96	48	3
STR	24	192	7
SV_	24	192	7	96	48	2
SV_	24	192	7	96	48	4
TAP	24	288	7
TAP	25	0	3
TAP	25	48	2
TAP	25	96	1
TAP	25	144	0
XTP	25	192	0
XTP	25	204	1
XTP	25	216	2
XTP	25	228	3
XTP	25	240	4
XTP	25	252	5
XTP	25	264	6
XTP	25	276	7
XTP	25	288	0
XTP	25	300	1
XTP	25	312	2
XTP	25	324	3
XTP	25	336	4
XTP	25	348	5
XTP	25	360	6
XTP	25	372	7
XTP	26	0	0
TTP	26	0	0	C	1	M1
TAP	26	240	2
TAP	26	240	5
TAP	26	288	2
STR	26	288	5
SCR	26	288	5	96	192	2
TAP	27	0	0
TAP	27	96	3
TAP	27	144	3
TAP	27	192	4
TAP	27	240	4
STR	27	288	5
SUR	27	288	5	96	48	1
STR	28	0	7
SF_	28	0	7	96	48	3
XTP	28	192	3
XTP	28	192	4
TAP	28	240	2
TAP	28	240	5
STR	28	288	2
SCL	28	288	2	96	192	5
TAP	28	288	5
TAP	29	0	7
TAP	29	96	4
TAP	29	144	4
STR	29	192	3
SUL	29	192	3	96	48	7
STR	29	288	0
SCR	29	288	0	96	144	7
HLD	30	0	4	240
TAP	30	240	0
STR	30	288	0
SCL	30	288	0	96	48	5
TAP	31	0	3
STR	31	96	7
SCR	31	96	7	96	48	2
TAP	31	192	4
STR	31	288	0
SI_	31	288	0	96	48	3
TAP	32	0	0
STR	32	0	4
SI_	32	0	4	96	48	7
HLD	32	96	3	96
TAP	32	96	4
TAP	32	192	7
TAP	32	240	7
STR	32	288	6
SCR	32	288	6	96	48	1
TAP	33	0	4
STR	33	96	2
SCR	33	96	2	96	48	5
TAP	33	144	0
STR	33	192	7
SI_	33	192	7	96	48	3
STR	33	288	1
SI_	33	288	1	96	48	5
TAP	34	0	6
TAP	34	48	6
TAP	34	96	0
TAP	34	144	0
XTP	34	192	7
XTP	34	204	6
XTP	34	216	5
XTP	34	228	4
XTP	34	240	3
XTP	34	252	2
XTP	34	264	1
XTP	34	276	0
XST	34	288	7
SXL	34	288	7	96	288	5
TAP	35	0	6
TAP	35	0	7
TAP	35	96	4
TAP	35	192	3
STR	35	288	2
SUL	35	288	2	96	48	6
STR	36	0	0
SV_	36	0	0	96	48	3
SV_	36	0	0	96	48	5
XTP	36	192	3
XTP	36	192	4
TAP	36	240	2
TAP	36	240	5
TAP	36	288	2
STR	36	288	5
SCR	36	288	5	96	192	2
TAP	37	0	0
TAP	37	96	3
TAP	37	144	3
STR	37	192	4
SUR	37	192	4	96	48	0
STR	37	288	7
SF_	37	288	7	96	96	3
TAP	38	192	4
TAP	38	192	5
TAP	38	240	6
TAP	38	288	6
STR	38	288	7
SCR	38	288	7	96	48	2
TAP	39	0	4
STR	39	96	0
SCL	39	96	0	96	48	5
TAP	39	192	3
STR	39	288	7
SCL	39	288	7	96	48	4
STR	40	0	3
SCL	40	0	3	96	48	0
TAP	40	0	7
TAP	40	96	3
HLD	40	96	4	96
TAP	40	192	0
TAP	40	240	0
STR	40	288	1
SCL	40	288	1	96	48	6
TAP	41	0	3
STR	41	96	5
SCL	41	96	5	96	48	2
TAP	41	144	7
STR	41	192	0
SI_	41	192	0	96	48	4
STR	41	288	6
SI_	41	288	6	96	48	2
TAP	42	0	1
TAP	42	48	1
TAP	42	96	7
TAP	42	144	7
TAP	42	192	3
TAP	42	240	3
BRK	42	288	2
BRK	42	288	4
STR	43	0	1
SXL	43	0	1	96	192	5
TAP	43	96	5
TAP	43	144	5
TAP	43	192	6
TAP	43	288	7
TAP	43	336	7
TAP	43	360	6
STR	44	0	5
SI_	44	0	5	96	48	3
TAP	44	96	0
TAP	44	144	0
TAP	44	168	1
STR	44	192	2
SI_	44	192	2	96	48	6
TAP	44	240	5
TAP	44	288	6
TAP	44	336	7
HLD	45	0	7	72
HLD	45	72	6	72
TAP	45	144	5
TAP	45	192	4
TAP	45	288	3
TAP	45	288	5
TAP	45	336	5
TAP	45	360	4
STR	46	0	3
SI_	46	0	3	96	48	7
TAP	46	96	1
TAP	46	96	3
TAP	46	144	1
TAP	46	168	2
STR	46	192	3
SI_	46	192	3	96	48	0
TAP	46	288	3
TAP	46	288	5
TAP	47	0	0
TAP	47	0	7
TAP	47	72	6
TAP	47	96	4
TAP	47	144	3
TAP	47	144	5
TAP	47	192	0
TAP	47	192	7
TAP	47	264	1
TAP	47	288	3
TAP	47	336	2
TAP	47	336	4
TAP	48	0	0
TAP	48	0	7
TAP	48	72	5
TAP	48	96	3
TAP	48	144	2
TAP	48	144	6
TAP	48	192	0
TAP	48	192	7
TAP	48	264	2
TAP	48	288	4
TAP	48	336	1
TAP	48	336	5
STR	49	0	0
SI_	49	0	0	96	48	4
TAP	49	0	6
TAP	49	96	5
TAP	49	144	5
TAP	49	168	6
TAP	49	192	7
TAP	49	264	4
TAP	49	264	7
TAP	49	336	3
TAP	49	336	6
HLD	50	0	2	96
HLD	50	0	5	96
TAP	50	144	2
TAP	50	160	3
TAP	50	176	4
STR	50	192	5
SI_	50	192	5	96	48	1
BRK	51	0	0
TTP	51	192	3	E	0	M1
TTP	51	192	4	E	0	M1
TTP	52	0	3	B	0	M1
TTP	52	0	5	E	0	M1
TTP	52	96	7	E	0	M1
TTP	52	192	3	E	0	M1
TTP	52	192	4	B	0	M1
TTP	52	288	1	E	0	M1
TTP	53	0	4	E	0	M1
TTP	53	0	5	E	0	M1
TTP	53	48	6	E	0	M1
TTP	53	96	7	E	0	M1
TTP	53	192	3	E	0	M1
TTP	53	192	4	B	0	M1
TTP	53	240	2	E	0	M1
TTP	53	288	1	E	0	M1
TTP	54	0	4	E	0	M1
TTP	54	0	5	E	0	M1
TTP	54	96	2	B	0	M1
TTP	54	96	6	B	0	M1
TTP	54	192	0	E	0	M1
TTP	54	192	1	E	0	M1
XTP	54	288	7
STR	55	0	6
SCL	55	0	6	96	96	2
TAP	55	96	2
TAP	55	192	0
TAP	55	288	0
STR	56	0	1
SCR	56	0	1	96	96	5
TAP	56	96	5
TAP	56	192	7
TAP	56	288	7
STR	57	0	6
SCL	57	0	6	96	96	2
TAP	57	96	2
TAP	57	192	0
TAP	57	288	0
STR	58	0	1
SLR	58	0	1	96	96	5
TAP	58	96	5
STR	58	192	7
SI_	58	192	7	96	48	3
STR	58	288	0
SCR	58	288	0	96	144	6
TAP	58	288	7
TAP	59	0	0
BRK	59	0	6
TAP	59	96	7
TAP	59	192	7
STR	59	288	7
SCL	59	288	7	96	144	1
XTP	60	0	1
TAP	60	96	0
TAP	60	192	0
STR	60	288	0
SI_	60	288	0	96	48	4
STR	61	0	7
SI_	61	0	7	96	48	3
TAP	61	48	7
TAP	61	96	1
TAP	61	144	0
XTP	61	192	0
XTP	61	204	1
XTP	61	216	2
XTP	61	228	3
XTP	61	240	4
XTP	61	252	5
XTP	61	264	6
XTP	61	276	7
XTP	61	288	0
XTP	61	300	1
XTP	61	312	2
XTP	61	324	3
XTP	61	336	4
XTP	61	348	5
XTP	61	360	6
XTP	61	372	7
XTP	62	0	0
TTP	62	0	0	C	1	M1
TAP	62	240	3
TAP	62	264	4
BST	62	288	2
SUL	62	288	2	96	48	6
BRK	62	288	5
STR	63	0	7
SCL	63	0	7	96	48	4
TAP	63	96	2
TAP	63	144	1
STR	63	192	0
SI_	63	192	0	96	48	4
STR	63	240	4
SI_	63	240	4	96	48	0
STR	63	288	0
SCR	63	288	0	96	96	6
TAP	64	0	6
TAP	64	48	7
HLD	64	96	7	96
TAP	64	192	5
TAP	64	240	4
TAP	64	288	3
STR	64	288	5
SUR	64	288	5	96	48	1
STR	65	0	0
SCR	65	0	0	96	48	3
TAP	65	96	5
TAP	65	144	6
STR	65	192	7
SI_	65	192	7	96	48	3
TAP	65	240	3
STR	65	288	7
SXR	65	288	7	96	192	3
TAP	66	0	2
TAP	66	0	7
TAP	66	96	1
TAP	66	192	0
TAP	66	240	0
STR	66	288	1
SUL	66	288	1	96	48	4
STR	66	288	7
SUR	66	288	7	96	48	4
TAP	67	0	1
TAP	67	0	7
STR	67	96	0
SUL	67	96	0	96	48	3
STR	67	96	6
SUR	67	96	6	96	48	3
TAP	67	192	0
TAP	67	192	6
STR	67	288	7
SCL	67	288	7	96	48	4
TAP	67	336	4
STR	68	0	3
SCL	68	0	3	96	48	0
STR	68	96	4
SI_	68	96	4	96	48	7
TAP	68	192	0
TAP	68	240	0
STR	68	288	1
SCL	68	288	1	96	48	6
TAP	69	0	3
STR	69	96	5
SCL	69	96	5	96	48	2
TAP	69	144	7
STR	69	192	0
SI_	69	192	0	96	48	4
STR	69	288	6
SI_	69	288	6	96	48	2
TAP	70	0	1
TAP	70	48	1
TAP	70	96	7
TAP	70	144	7
XTP	70	192	0
XTP	70	204	1
XTP	70	216	2
XTP	70	228	3
XTP	70	240	4
XTP	70	252	5
XTP	70	264	6
XTP	70	276	7
XST	70	288	0
SI_	70	288	0	96	48	4
STR	71	0	0
SF_	71	0	0	96	48	4
BRK	71	96	0
STR	71	192	7
SI_	71	192	7	96	48	3
STR	71	240	3
SI_	71	240	3	96	48	7
STR	71	288	7
SCL	71	288	7	96	96	1
TAP	72	0	1
TAP	72	48	0
HLD	72	96	0	96
TAP	72	192	2
TAP	72	240	3
STR	72	288	2
SUL	72	288	2	96	48	6
TAP	72	288	4
STR	73	0	7
SCL	73	0	7	96	48	4
TAP	73	96	2
TAP	73	144	1
STR	73	192	0
SI_	73	192	0	96	48	4
TAP	73	240	4
STR	73	288	0
SXL	73	288	0	96	192	4
TAP	74	0	0
TAP	74	0	5
TAP	74	96	6
TAP	74	192	7
TAP	74	240	7
STR	74	288	0
SCR	74	288	0	96	48	3
STR	74	288	6
SCL	74	288	6	96	48	3
TAP	75	0	0
TAP	75	0	6
STR	75	96	1
SCR	75	96	1	96	48	4
STR	75	96	7
SCL	75	96	7	96	48	4
TAP	75	192	1
TAP	75	192	7
STR	75	288	0
SCR	75	288	0	96	48	3
TAP	75	336	3
STR	76	0	4
SCR	76	0	4	96	48	7
STR	76	96	3
SI_	76	96	3	96	48	0
TAP	76	192	7
TAP	76	240	7
STR	76	288	6
SCR	76	288	6	96	48	1
TAP	77	0	4
STR	77	96	2
SCR	77	96	2	96	48	5
TAP	77	144	0
STR	77	192	7
SI_	77	192	7	96	48	3
STR	77	288	3
SXL	77	288	3	96	96	3
SXR	77	288	3	96	96	3
TAP	78	192	2
TAP	78	216	2
TAP	78	240	4
TAP	78	264	4
TAP	78	288	3
TAP	79	0	5
TAP	79	48	3
TAP	79	96	2
TAP	79	96	4
TAP	79	192	4
TAP	79	240	3
TAP	79	288	2
TAP	79	288	4
TAP	80	0	5
TAP	80	48	4
TAP	80	96	3
TAP	80	144	2
TAP	80	192	6
TAP	80	240	7
TAP	80	288	0
TAP	80	336	1
TAP	81	0	6
TAP	81	48	5
TAP	81	96	3
TAP	81	96	4
TAP	81	144	2
TAP	81	192	5
TAP	81	240	4
TAP	81	288	2
TAP	81	288	3
TAP	81	336	1
TAP	82	0	6
TAP	82	48	5
TAP	82	96	4
TAP	82	144	3
TAP	82	192	2
TAP	82	192	4
TAP	82	240	1
STR	82	288	5
SCL	82	288	5	96	576	2
TTP	83	0	4	E	0	M1

T_REC_TAP	292
T_REC_BRK	9
T_REC_XTP	58
T_REC_HLD	14
T_REC_XHO	0
T_REC_STR	108
T_REC_BST	1
T_REC_XST	14
T_REC_TTP	36
T_REC_THO	0
T_REC_SLD	129
T_REC_ALL	661
T_NUM_TAP	508
T_NUM_BRK	10
T_NUM_HLD	14
T_NUM_SLD	129
T_NUM_ALL	661
T_JUDGE_TAP	518
T_JUDGE_HLD	51
T_JUDGE_SLD	129
T_JUDGE_ALL	698
TTM_EACHPAIRS	60
TTM_SCR_TAP	254000
TTM_SCR_BRK	26000
TTM_SCR_HLD	14000
TTM_SCR_SLD	193500
TTM_SCR_ALL	487500
TTM_SCR_S	471950
TTM_SCR_SS	486500
TTM_RAT_ACV	10020

