VERSION	0.00.00	1.03.00
FES_MODE	0
BPM_DEF	140.000	140.000	140.000	140.000
MET_DEF	4	4
RESOLUTION	384
CLK_DEF	384
COMPATIBLE_CODE	MA2

BPM	0	0	140.000
MET	0	0	4	4

TAP	1	0	0
TAP	1	96	0
TAP	1	96	7
TAP	1	192	6
TAP	1	288	6
TAP	1	288	7
TAP	2	0	5
TAP	2	96	4
TAP	2	192	3
TAP	2	288	2
TAP	2	288	4
TAP	3	0	7
TAP	3	96	0
TAP	3	96	7
TAP	3	192	1
TAP	3	288	0
TAP	3	288	1
TAP	4	0	2
TAP	4	96	3
TAP	4	192	4
TAP	4	288	3
TAP	4	288	5
TAP	5	0	1
TAP	5	96	0
TAP	5	96	1
TAP	5	192	6
TAP	5	288	6
TAP	5	288	7
TAP	6	0	0
TAP	6	96	1
TAP	6	192	2
TAP	6	288	3
TAP	6	288	4
TAP	7	0	6
TAP	7	96	6
TAP	7	96	7
TAP	7	192	1
TAP	7	288	0
TAP	7	288	1
TAP	8	0	7
STR	8	96	0
SCR	8	96	0	96	96	3
STR	8	96	7
SCL	8	96	7	96	96	4
HLD	9	0	2	192
HLD	9	192	3	192
TAP	10	0	4
TAP	10	96	3
TAP	10	192	2
TAP	10	192	4
HLD	11	0	5	192
HLD	11	192	4	192
TAP	12	0	3
TAP	12	96	4
TAP	12	192	3
TAP	12	192	5
TAP	13	0	2
TAP	13	0	4
TAP	13	96	1
TAP	13	192	2
TAP	13	192	4
TAP	13	288	5
TAP	14	0	4
TAP	14	0	6
TAP	14	96	3
STR	14	96	7
SCL	14	96	7	96	96	4
TAP	14	192	1
TAP	15	0	3
TAP	15	0	5
TAP	15	96	6
TAP	15	192	3
TAP	15	192	5
TAP	15	288	2
TAP	16	0	1
TAP	16	0	3
STR	16	96	0
SCR	16	96	0	96	96	3
TAP	16	96	4
TAP	16	192	6
HLD	17	0	5	72
HLD	17	72	4	72
TAP	17	144	3
HLD	17	192	1	72
HLD	17	264	2	72
TAP	17	336	3
TAP	18	0	3
TAP	18	96	2
TAP	18	96	4
TAP	18	192	3
TAP	18	192	5
TAP	18	288	0
TAP	18	288	6
HLD	19	0	2	72
HLD	19	72	3	72
TAP	19	144	4
HLD	19	192	6	72
HLD	19	264	5	72
TAP	19	336	4
TAP	20	0	4
TAP	20	96	3
STR	20	96	5
SCR	20	96	5	96	96	0
TAP	20	192	2
HLD	21	0	1	72
HLD	21	72	2	72
TAP	21	144	3
HLD	21	192	6	72
HLD	21	264	5	72
TAP	21	336	4
TAP	22	0	4
TAP	22	96	3
TAP	22	96	5
TAP	22	192	1
TAP	22	192	4
TAP	22	288	3
TAP	22	288	7
HLD	23	0	6	72
HLD	23	72	5	72
TAP	23	144	4
HLD	23	192	1	72
HLD	23	264	2	72
TAP	23	336	3
TAP	24	0	3
TAP	24	96	2
TAP	24	96	4
TAP	24	192	3
TAP	24	192	6
STR	24	288	0
SXL	24	288	0	96	288	3
STR	24	288	4
SXL	24	288	4	96	288	7
XHO	26	0	1	192
XHO	26	0	5	192
BRK	26	288	7
TAP	27	0	0
TAP	27	0	6
TAP	27	96	2
TAP	27	96	4
TAP	27	192	1
TAP	27	240	1
TAP	27	288	0
STR	28	0	6
SUL	28	0	6	96	96	2
TAP	28	48	6
TAP	28	96	7
TAP	28	288	0
TAP	29	0	1
TAP	29	0	7
TAP	29	96	4
TAP	29	96	6
TAP	29	192	2
TAP	29	192	3
STR	29	288	0
SCR	29	288	0	96	144	5
TAP	29	288	5
TAP	30	192	6
TAP	30	192	7
XTP	30	288	1
XTP	30	288	5
HLD	31	0	2	96
TAP	31	96	3
TAP	31	192	5
TAP	31	288	7
TAP	32	0	0
TAP	32	0	6
TAP	32	96	1
TAP	32	96	5
TAP	32	192	2
TAP	32	192	4
TAP	32	288	3
HLD	33	0	4	96
TAP	33	0	5
TAP	33	96	6
TAP	33	192	1
HLD	33	192	3	96
TAP	33	288	2
TAP	34	0	4
TAP	34	0	5
TAP	34	96	6
TAP	34	96	7
TAP	34	192	0
TAP	34	192	1
TAP	34	288	2
TAP	34	336	2
TAP	35	0	3
XTP	35	96	1
XTP	35	96	5
TAP	35	192	6
TAP	35	240	6
TAP	35	288	7
STR	36	0	1
SUR	36	0	1	96	96	5
TAP	36	48	1
TAP	36	96	0
TAP	36	288	7
TAP	37	0	0
TAP	37	0	6
TAP	37	96	1
TAP	37	96	3
TAP	37	192	4
TAP	37	192	5
TAP	37	288	2
STR	37	288	7
SCL	37	288	7	96	144	2
TAP	38	192	0
TAP	38	192	1
XTP	38	288	2
XTP	38	288	6
HLD	39	0	5	96
TAP	39	96	4
TAP	39	192	2
TAP	39	288	1
TAP	39	288	3
TAP	40	0	7
TAP	40	48	7
TAP	40	96	0
TAP	40	192	1
TAP	40	192	6
TAP	40	288	2
TAP	40	288	5
HLD	41	0	3	96
TAP	41	0	4
TAP	41	96	6
TAP	41	192	3
HLD	41	192	4	96
TAP	41	288	1
TAP	42	0	2
TAP	42	0	3
TAP	42	96	0
TAP	42	96	1
TAP	42	192	6
TAP	42	192	7
BRK	42	288	0
STR	42	288	5
SCR	42	288	5	96	192	2
TAP	43	288	3
TAP	43	288	4
TAP	44	0	5
TAP	44	96	6
TAP	44	96	7
TAP	44	192	0
TAP	44	192	1
TAP	44	288	2
TAP	44	288	7
XTP	45	0	5
XTP	45	72	3
XST	45	144	1
SI_	45	144	1	96	96	5
XTP	45	192	1
TAP	46	0	7
TAP	46	96	4
TAP	46	96	6
TAP	46	192	0
TAP	46	288	1
TAP	46	288	3
HLD	47	0	6	72
HLD	47	72	5	72
TAP	47	144	4
HLD	47	192	1	72
HLD	47	264	2	72
TAP	47	336	3
STR	48	0	3
SI_	48	0	3	96	48	1
STR	48	0	4
SI_	48	0	4	96	48	6
TAP	48	192	0
TAP	48	192	7
TAP	48	288	3
TAP	48	288	4
TAP	49	0	1
TAP	49	0	6
TAP	49	96	0
TAP	49	96	2
TAP	49	192	5
TAP	49	192	7
TAP	49	288	1
STR	49	288	6
SI_	49	288	6	96	96	2
TAP	50	96	0
TAP	50	144	0
XTP	50	192	1
XTP	50	192	7
HLD	51	0	6	192
HLD	51	192	4	384
TTP	52	0	4	E	0	M1
TTP	52	96	5	E	0	M1
TTP	52	192	6	E	0	M1
TTP	52	288	7	E	0	M1
HLD	53	0	1	192
HLD	53	192	3	384
TTP	54	0	4	E	0	M1
TTP	54	96	0	C	0	M1
TTP	54	192	0	E	0	M1
HLD	55	0	0	96
HLD	55	0	6	96
HLD	55	192	1	96
HLD	55	192	3	384
TTP	56	0	4	E	0	M1
TTP	56	96	3	E	0	M1
TTP	56	192	2	E	0	M1
TTP	56	288	1	E	0	M1
HLD	57	0	1	96
HLD	57	0	7	96
HLD	57	192	4	384
HLD	57	192	6	96
TTP	58	0	4	E	0	M1
TTP	58	96	0	C	0	M1
TTP	58	192	0	E	0	M1
TAP	58	288	1
TAP	58	288	6
TAP	59	0	2
TAP	59	96	2
TAP	59	96	3
TAP	59	192	5
TAP	59	288	4
TAP	59	288	5
TAP	60	0	2
TAP	60	96	1
TAP	60	96	3
TAP	60	192	5
TAP	60	288	4
TAP	60	288	6
TAP	61	0	0
TAP	61	0	1
TAP	61	96	6
TAP	61	96	7
TAP	61	192	0
TAP	61	240	0
TAP	61	288	7
TAP	61	336	7
THO	62	0	0	288	C	1	M1
XTP	63	0	7
TAP	63	96	0
TAP	63	96	6
TAP	63	192	1
TAP	63	240	1
TAP	63	288	0
STR	64	0	6
SUL	64	0	6	96	192	3
TAP	64	48	6
TAP	64	96	7
TAP	64	288	2
TAP	65	0	0
TAP	65	0	1
TAP	65	96	2
TAP	65	96	7
TAP	65	192	6
TAP	65	192	7
STR	65	288	0
SCR	65	288	0	96	144	5
TAP	65	288	5
TAP	66	192	6
TAP	66	192	7
XTP	66	288	1
XTP	66	288	5
HLD	67	0	2	96
TAP	67	96	3
TAP	67	192	6
TAP	67	240	6
TAP	67	288	7
TAP	68	0	0
TAP	68	0	5
TAP	68	96	1
TAP	68	96	4
TAP	68	192	2
TAP	68	192	3
TAP	68	288	4
TAP	68	288	5
TAP	69	0	1
HLD	69	0	3	96
TAP	69	96	2
HLD	69	192	4	96
TAP	69	192	5
TAP	69	288	6
TAP	70	0	0
TAP	70	0	7
TAP	70	96	1
TAP	70	96	3
TAP	70	192	4
TAP	70	192	6
TAP	70	288	2
TAP	70	336	2
TAP	71	0	3
BRK	71	96	1
BRK	71	96	5
TAP	71	192	6
TAP	71	240	6
TAP	71	288	7
STR	72	0	1
SUR	72	0	1	96	192	4
TAP	72	48	1
TAP	72	96	0
TAP	72	288	7
TAP	73	0	0
TAP	73	0	6
TAP	73	96	1
TAP	73	96	3
TAP	73	192	4
TAP	73	192	5
TAP	73	288	2
STR	73	288	7
SCL	73	288	7	96	144	2
TAP	74	192	0
TAP	74	192	1
XTP	74	288	2
XTP	74	288	6
HLD	75	0	5	96
TAP	75	96	4
TAP	75	192	2
TAP	75	240	2
TAP	75	288	3
TAP	76	0	7
TAP	76	48	7
TAP	76	96	0
TAP	76	192	1
TAP	76	192	6
TAP	76	288	2
TAP	76	288	5
TAP	77	0	3
HLD	77	0	4	96
TAP	77	96	1
HLD	77	192	3	96
TAP	77	192	4
TAP	77	288	6
TAP	78	0	4
TAP	78	0	5
TAP	78	96	6
TAP	78	96	7
TAP	78	192	0
TAP	78	192	1
STR	78	288	2
SUR	78	288	2	96	288	4
TAP	78	288	3
STR	80	0	6
SUL	80	0	6	96	192	1
STR	81	0	0
SCR	81	0	0	96	96	3
STR	81	192	7
SCL	81	192	7	96	96	4
HLD	82	0	2	1104
TAP	82	192	3
TAP	82	288	4
HLD	83	0	5	720

T_REC_TAP	309
T_REC_BRK	4
T_REC_XTP	16
T_REC_HLD	50
T_REC_XHO	2
T_REC_STR	23
T_REC_BST	0
T_REC_XST	1
T_REC_TTP	14
T_REC_THO	1
T_REC_SLD	24
T_REC_ALL	444
T_NUM_TAP	363
T_NUM_BRK	4
T_NUM_HLD	53
T_NUM_SLD	24
T_NUM_ALL	444
T_JUDGE_TAP	367
T_JUDGE_HLD	184
T_JUDGE_SLD	24
T_JUDGE_ALL	575
TTM_EACHPAIRS	121
TTM_SCR_TAP	181500
TTM_SCR_BRK	10400
TTM_SCR_HLD	53000
TTM_SCR_SLD	36000
TTM_SCR_ALL	280900
TTM_SCR_S	272100
TTM_SCR_SS	280500
TTM_RAT_ACV	10014

