VERSION	0.00.00	1.03.00
FES_MODE	0
BPM_DEF	140.000	140.000	140.000	140.000
MET_DEF	4	4
RESOLUTION	384
CLK_DEF	384
COMPATIBLE_CODE	MA2

BPM	0	0	140.000
MET	0	0	4	4

TAP	1	0	1
TAP	1	96	1
TAP	1	192	0
TAP	1	288	0
TAP	2	0	7
TAP	2	96	7
TAP	2	192	0
TAP	2	192	6
TAP	3	0	5
TAP	3	96	5
TAP	3	192	4
TAP	3	288	4
TAP	4	0	3
TAP	4	96	3
TAP	4	192	3
TAP	4	192	4
TAP	5	0	2
TAP	5	96	2
TAP	5	192	3
TAP	5	288	3
TAP	6	0	4
TAP	6	96	4
TAP	6	192	3
TAP	6	192	5
TAP	7	0	6
TAP	7	96	6
TAP	7	192	7
TAP	7	288	7
TAP	8	0	0
TAP	8	96	0
TAP	8	96	7
BRK	8	192	1
BRK	8	192	6
STR	9	0	2
SXR	9	0	2	96	480	7
STR	11	0	6
SXR	11	0	6	96	480	3
TAP	13	0	2
TAP	13	96	2
TAP	13	192	2
TAP	13	192	3
TAP	14	0	5
TAP	14	96	5
TAP	14	192	4
TAP	14	192	5
TAP	15	0	2
TAP	15	96	2
TAP	15	192	2
TAP	15	192	3
TAP	16	0	4
TAP	16	96	4
TAP	16	192	3
TAP	16	192	5
HLD	17	0	5	192
HLD	17	192	4	192
HLD	18	0	3	192
TAP	18	192	2
HLD	19	0	2	192
HLD	19	192	3	192
HLD	20	0	4	192
TAP	20	192	5
HLD	21	0	6	192
HLD	21	192	7	192
HLD	22	0	0	192
TAP	22	192	1
HLD	23	0	1	192
HLD	23	192	0	192
HLD	24	0	7	192
TAP	24	192	6
HLD	25	0	0	192
HLD	25	0	7	192
TTP	26	0	0	C	1	L1
XTP	27	0	6
TAP	27	96	6
TAP	27	192	6
TAP	27	192	7
TAP	27	288	6
TAP	27	288	7
TAP	28	0	5
TAP	28	96	4
TAP	28	192	3
TAP	28	192	5
TAP	29	0	2
TAP	29	96	2
TAP	29	192	2
TAP	29	192	3
TAP	29	288	2
TAP	29	288	3
TAP	30	0	1
TAP	30	96	0
TAP	30	192	0
TAP	30	192	7
TAP	31	0	1
TAP	31	96	1
TAP	31	192	0
TAP	31	192	1
TAP	31	288	0
TAP	31	288	1
TAP	32	0	2
TAP	32	96	2
TAP	32	192	3
TAP	32	288	4
TAP	33	0	5
TAP	33	96	5
TAP	33	192	4
TAP	33	192	5
TAP	33	288	4
TAP	33	288	5
TAP	34	0	3
TAP	34	96	3
TAP	34	96	4
TAP	34	192	2
TAP	34	192	5
XTP	35	0	1
TAP	35	96	1
TAP	35	192	0
TAP	35	192	1
TAP	35	288	0
TAP	35	288	1
TAP	36	0	2
TAP	36	96	3
TAP	36	192	2
TAP	36	192	4
TAP	37	0	5
TAP	37	96	5
TAP	37	192	4
TAP	37	192	5
TAP	37	288	4
TAP	37	288	5
TAP	38	0	6
TAP	38	96	7
TAP	38	192	0
TAP	38	192	7
TAP	39	0	6
TAP	39	96	6
TAP	39	192	6
TAP	39	192	7
TAP	39	288	6
TAP	39	288	7
TAP	40	0	5
TAP	40	96	5
TAP	40	192	4
TAP	40	288	3
TAP	41	0	2
TAP	41	96	2
TAP	41	192	2
TAP	41	192	3
TAP	41	288	2
TAP	41	288	3
TAP	42	0	4
TAP	42	96	3
TAP	42	96	4
TAP	42	192	2
TAP	42	192	5
TTP	43	0	6	E	0	L1
TTP	43	96	5	B	0	L1
TTP	43	192	4	B	0	L1
TTP	44	0	2	E	0	L1
TTP	44	96	2	B	0	L1
TTP	44	192	3	B	0	L1
TTP	45	0	6	B	0	L1
TTP	45	96	5	B	0	L1
TTP	45	192	5	E	0	L1
TTP	46	0	1	B	0	L1
TTP	46	96	2	B	0	L1
TTP	46	192	3	E	0	L1
TTP	47	0	5	E	0	L1
TTP	47	96	5	B	0	L1
TTP	47	192	6	B	0	L1
TTP	48	0	3	E	0	L1
TTP	48	96	2	B	0	L1
TTP	48	192	1	B	0	L1
TTP	49	0	6	E	0	L1
TTP	49	96	6	B	0	L1
TTP	49	192	7	B	0	L1
TTP	49	288	0	B	0	L1
TTP	50	0	0	C	1	L1
HLD	51	0	6	192
HLD	51	192	7	192
HLD	52	0	0	192
TAP	52	192	1
HLD	53	0	2	192
HLD	53	192	3	192
HLD	54	0	4	192
TAP	54	192	5
STR	55	0	6
SCL	55	0	6	96	144	3
STR	56	0	2
SCL	56	0	2	96	144	7
STR	57	0	6
SUL	57	0	6	96	144	2
TAP	58	0	1
TAP	58	96	1
TAP	58	192	0
TAP	58	192	7
TAP	59	0	6
TAP	59	96	6
TAP	59	192	5
TAP	59	288	5
TAP	60	0	4
TAP	60	96	4
TAP	60	192	3
TAP	60	288	3
TAP	61	0	2
TAP	61	96	2
TAP	61	192	1
TAP	61	288	1
STR	62	0	0
SI_	62	0	0	96	144	3
STR	62	0	7
SI_	62	0	7	96	144	4
XTP	63	0	2
TAP	63	96	2
TAP	63	96	3
TAP	63	192	2
TAP	63	288	2
TAP	63	288	3
TAP	64	0	1
TAP	64	96	0
TAP	64	192	0
TAP	64	192	7
TAP	65	0	6
TAP	65	96	6
TAP	65	96	7
TAP	65	192	6
TAP	65	288	6
TAP	65	288	7
TAP	66	0	5
TAP	66	96	4
TAP	66	192	3
TAP	66	192	5
TAP	67	0	5
TAP	67	96	4
TAP	67	96	5
TAP	67	192	5
TAP	67	288	4
TAP	67	288	5
TAP	68	0	6
TAP	68	96	6
TAP	68	192	7
TAP	68	288	0
TAP	69	0	1
TAP	69	96	0
TAP	69	96	1
TAP	69	192	1
TAP	69	288	0
TAP	69	288	1
TAP	70	0	7
TAP	70	96	0
TAP	70	96	7
TAP	70	192	1
TAP	70	192	6
XTP	71	0	5
TAP	71	96	4
TAP	71	96	5
TAP	71	192	5
TAP	71	288	4
TAP	71	288	5
TAP	72	0	6
TAP	72	96	7
TAP	72	192	0
TAP	72	192	7
TAP	73	0	1
TAP	73	96	0
TAP	73	96	1
TAP	73	192	1
TAP	73	288	0
TAP	73	288	1
TAP	74	0	2
TAP	74	96	3
TAP	74	192	2
TAP	74	192	4
TAP	75	0	2
TAP	75	96	2
TAP	75	96	3
TAP	75	192	2
TAP	75	288	2
TAP	75	288	3
TAP	76	0	1
TAP	76	96	1
TAP	76	192	0
TAP	76	288	7
TAP	77	0	6
TAP	77	96	6
TAP	77	96	7
TAP	77	192	6
TAP	77	288	6
TAP	77	288	7
TAP	78	0	0
TAP	78	96	0
TAP	78	96	7
TAP	78	192	1
TAP	78	192	6
TTP	79	0	0	E	0	L1
TTP	79	192	1	E	0	L1
TTP	80	0	2	E	0	L1
TTP	80	192	3	E	0	L1
TTP	81	0	4	E	0	L1
TTP	81	192	5	E	0	L1
TTP	82	0	6	E	0	L1
TTP	82	192	7	E	0	L1
THO	83	0	0	384	C	0	L1

T_REC_TAP	229
T_REC_BRK	2
T_REC_XTP	4
T_REC_HLD	20
T_REC_XHO	0
T_REC_STR	7
T_REC_BST	0
T_REC_XST	0
T_REC_TTP	32
T_REC_THO	1
T_REC_SLD	7
T_REC_ALL	302
T_NUM_TAP	272
T_NUM_BRK	2
T_NUM_HLD	21
T_NUM_SLD	7
T_NUM_ALL	302
T_JUDGE_TAP	274
T_JUDGE_HLD	88
T_JUDGE_SLD	7
T_JUDGE_ALL	369
TTM_EACHPAIRS	60
TTM_SCR_TAP	136000
TTM_SCR_BRK	5200
TTM_SCR_HLD	21000
TTM_SCR_SLD	10500
TTM_SCR_ALL	172700
TTM_SCR_S	167350
TTM_SCR_SS	172500
TTM_RAT_ACV	10011

