VERSION	0.00.00	1.03.00
FES_MODE	0
BPM_DEF	137.000	137.000	137.000	137.000
MET_DEF	4	4
RESOLUTION	384
CLK_DEF	384
COMPATIBLE_CODE	MA2

BPM	0	0	137.000
MET	0	0	4	4

TTP	1	0	0	C	1	M1
TTP	1	0	1	B	0	M1
TTP	1	0	2	B	0	M1
TTP	1	0	2	E	0	M1
TTP	1	0	5	B	0	M1
TTP	1	0	6	B	0	M1
TTP	1	0	6	E	0	M1
XST	1	144	0
SI_	1	144	0	96	48	4
TAP	1	240	0
XST	1	240	7
SCL	1	240	7	96	48	4
XST	1	336	0
SCR	1	336	0	96	48	3
TAP	1	336	7
TAP	2	48	0
XST	2	48	7
SI_	2	48	7	96	48	3
XST	2	144	1
SI_	2	144	1	96	48	5
TAP	2	144	7
TAP	2	240	1
XTP	2	240	6
TAP	2	288	7
TAP	2	336	0
XHO	3	0	1	96
XHO	3	0	6	96
XTP	3	144	3
XTP	3	144	4
XST	3	240	0
SCR	3	240	0	96	144	7
XTP	3	240	7
STR	4	192	3
SI_	4	192	3	96	48	0
STR	4	192	4
SI_	4	192	4	96	48	7
BRK	5	0	1
BRK	5	0	6
TAP	5	96	3
TAP	5	96	4
TAP	5	144	2
TAP	5	168	3
TAP	5	192	1
TAP	5	240	4
TAP	5	264	3
TAP	5	288	5
TAP	5	336	2
TAP	5	360	3
TAP	6	0	0
TAP	6	48	4
TAP	6	72	3
TAP	6	96	6
TAP	6	144	5
TAP	6	144	7
TAP	6	192	1
TAP	6	240	0
TAP	6	240	2
STR	6	288	3
SCL	6	288	3	96	48	0
TAP	6	288	7
TAP	6	336	4
TAP	6	336	6
XHO	7	0	5	96
TAP	7	96	7
TAP	7	128	7
TAP	7	160	7
TAP	7	192	0
TAP	7	192	6
TAP	7	240	1
TAP	7	240	5
TAP	7	288	2
TAP	7	288	4
HLD	7	336	3	144
TAP	8	96	5
TAP	8	108	6
TAP	8	120	7
TAP	8	132	0
TAP	8	144	1
TAP	8	156	2
TAP	8	168	3
TAP	8	180	4
BRK	8	192	0
TAP	8	240	6
TAP	8	264	7
STR	8	288	6
SI_	8	288	6	96	48	2
TAP	8	336	7
TAP	9	0	0
TAP	9	0	6
TAP	9	96	1
TAP	9	96	3
TAP	9	144	5
TAP	9	168	4
TAP	9	192	6
TAP	9	240	3
TAP	9	264	4
TAP	9	288	2
TAP	9	336	5
TAP	9	360	4
TAP	10	0	7
TAP	10	48	0
TAP	10	48	6
STR	10	96	1
SI_	10	96	1	96	48	5
TAP	10	96	5
HLD	10	192	6	72
TAP	10	264	4
TAP	10	312	7
TAP	10	336	0
HLD	11	0	2	96
STR	11	0	6
SCL	11	0	6	96	48	3
TAP	11	144	1
STR	11	192	1
SCR	11	192	1	96	48	4
TAP	11	288	6
TAP	11	336	7
TAP	12	0	0
TAP	12	0	1
TAP	12	48	3
TAP	12	96	6
TAP	12	96	7
TAP	12	144	4
STR	12	192	0
SCR	12	192	0	96	48	3
STR	12	192	7
SCL	12	192	7	96	48	4
TAP	13	0	1
TAP	13	0	6
TAP	13	48	7
TAP	13	72	0
TAP	13	96	7
TAP	13	144	1
TAP	13	168	3
TAP	13	192	2
TAP	13	224	2
TAP	13	256	4
TAP	13	288	3
TAP	13	320	3
TAP	13	352	5
XST	14	0	4
SCL	14	0	4	96	48	1
XST	14	0	5
SLL	14	0	5	96	48	0
XST	14	192	4
SCL	14	192	4	96	48	1
XST	14	192	5
SLL	14	192	5	96	48	0
TAP	15	0	3
TAP	15	0	4
TAP	15	48	6
TAP	15	72	7
TAP	15	96	6
TAP	15	120	1
TAP	15	144	0
TAP	15	168	1
TAP	15	192	4
TAP	15	216	3
TAP	15	240	4
TAP	15	264	3
TAP	15	288	4
TAP	15	336	1
TAP	15	336	6
XST	16	0	2
SLR	16	0	2	96	48	7
XST	16	0	3
SCR	16	0	3	96	48	6
XST	16	192	2
SLR	16	192	2	96	48	7
XST	16	192	3
SCR	16	192	3	96	48	6
TAP	17	0	3
TAP	17	0	4
TAP	17	48	1
TAP	17	72	3
TAP	17	96	2
TAP	17	120	4
TAP	17	144	3
TAP	17	168	5
TAP	17	192	4
TAP	17	216	6
TAP	17	240	3
HLD	17	264	7	120
STR	17	288	2
SCR	17	288	2	96	48	5
TAP	18	0	2
TAP	18	96	4
TAP	18	96	6
TAP	18	144	0
TAP	18	192	1
TAP	18	192	3
TAP	18	240	7
TAP	18	288	4
TAP	18	288	5
TAP	18	336	0
XTP	19	0	2
STR	19	0	3
SI_	19	0	3	96	48	7
XTP	19	48	2
TAP	19	48	3
STR	19	96	0
SI_	19	96	0	96	32	2
TAP	19	144	0
STR	19	192	6
SI_	19	192	6	96	32	4
TAP	19	240	6
STR	19	288	1
SXR	19	288	1	96	192	5
TAP	19	336	1
HLD	20	0	3	288
TAP	20	288	6
TAP	20	312	7
TAP	20	336	0
TAP	20	360	1
TAP	21	0	2
XHO	21	0	6	384
TAP	21	144	4
TAP	21	240	4
TAP	21	288	4
HLD	22	0	1	384
TAP	22	144	3
TAP	22	240	3
TAP	22	288	3
XHO	23	0	5	48
HLD	23	96	4	48
HLD	23	192	3	48
HLD	23	288	2	48
TAP	24	0	1
TAP	24	48	2
TAP	24	96	5
TAP	24	144	4
TAP	24	192	2
TAP	24	240	3
XTP	24	288	4
XTP	24	336	4
XHO	25	0	2	48
HLD	25	96	3	48
HLD	25	192	4	48
HLD	25	288	5	48
XTP	25	336	3
XTP	26	0	3
HLD	26	0	6	48
HLD	26	96	7	48
HLD	26	192	0	48
TAP	26	288	2
TAP	26	288	6
XTP	27	0	0
HLD	27	0	1	72
HLD	27	72	2	72
TAP	27	144	3
HLD	27	192	6	72
XTP	27	192	7
HLD	27	264	5	72
XST	27	336	4
SUL	27	336	4	96	96	3
XTP	28	0	3
XTP	28	0	4
TAP	28	144	0
STR	28	192	0
SCR	28	192	0	96	48	3
STR	28	192	4
SCR	28	192	4	96	48	7
BRK	28	288	0
BRK	28	288	4
TAP	29	0	2
STR	29	0	6
SI_	29	0	6	96	48	2
HLD	29	96	0	96
TAP	29	96	6
TAP	29	192	7
TAP	29	240	3
TAP	29	240	4
STR	29	288	1
SI_	29	288	1	96	32	3
TAP	29	288	6
TAP	30	0	1
STR	30	0	7
SI_	30	0	7	96	48	3
TAP	30	48	6
STR	30	96	0
SI_	30	96	0	96	48	4
TAP	30	96	7
TAP	30	144	1
TAP	30	192	0
STR	30	192	6
SI_	30	192	6	96	48	3
TAP	30	240	7
STR	30	288	1
SI_	30	288	1	96	48	5
TAP	30	288	6
TAP	30	336	0
TAP	31	0	1
STR	31	0	6
SI_	31	0	6	96	32	4
TAP	31	48	7
STR	31	96	0
SI_	31	96	0	96	48	4
TAP	31	96	6
TAP	31	144	1
TAP	31	192	0
STR	31	192	7
SI_	31	192	7	96	48	3
TAP	31	240	6
STR	31	288	1
SI_	31	288	1	96	48	5
TAP	31	288	7
TAP	31	336	0
TAP	32	0	1
STR	32	0	6
SI_	32	0	6	96	48	3
TAP	32	48	7
STR	32	96	1
SI_	32	96	1	96	48	4
TAP	32	96	6
TAP	32	144	0
TAP	32	192	1
STR	32	192	6
SI_	32	192	6	96	48	2
TAP	32	240	7
STR	32	288	1
SCR	32	288	1	96	120	7
TAP	32	288	6
TAP	32	336	0
TAP	33	0	1
TAP	33	0	5
TAP	33	144	4
TAP	33	192	3
TAP	33	192	5
TAP	33	240	2
TAP	33	240	6
TAP	33	288	1
TAP	33	288	7
TAP	33	336	0
STR	34	0	3
SCL	34	0	3	96	48	0
STR	34	0	5
SCR	34	0	5	96	48	0
TAP	34	96	3
STR	34	96	5
SCL	34	96	5	96	32	3
STR	34	192	0
SF_	34	192	0	96	48	4
TAP	34	288	0
TAP	35	0	2
STR	35	0	6
SI_	35	0	6	96	48	2
TAP	35	96	0
TAP	35	96	6
STR	35	168	3
SI_	35	168	3	96	48	0
TAP	35	240	7
TAP	35	288	7
XHO	36	0	2	48
HLD	36	0	4	48
HLD	36	72	3	48
XHO	36	72	6	48
XHO	36	144	1	48
HLD	36	144	5	48
HLD	36	216	2	48
XHO	36	216	7	48
TAP	36	288	1
XST	36	288	3
SCR	36	288	3	96	192	2
TAP	36	336	2
XTP	36	336	5
TAP	37	0	3
BRK	37	0	7
STR	37	192	3
SI_	37	192	3	96	48	7
TAP	37	288	1
TAP	38	0	4
TAP	38	0	6
TAP	38	48	7
TAP	38	96	4
TAP	38	96	6
TAP	38	144	0
TAP	38	192	4
TAP	38	192	6
TAP	38	240	7
TAP	38	288	4
TAP	38	288	6
TAP	38	336	0
STR	39	0	1
SI_	39	0	1	96	48	5
TAP	39	0	3
TAP	39	96	1
TAP	39	96	7
STR	39	168	4
SI_	39	168	4	96	48	7
TAP	39	240	0
TAP	39	288	0
TAP	40	0	3
TAP	40	0	5
TAP	40	48	4
TAP	40	96	1
TAP	40	96	3
TAP	40	144	2
TAP	40	192	3
TAP	40	192	6
TAP	40	240	5
TAP	40	288	0
TAP	40	288	4
TAP	40	336	2
STR	41	0	4
SI_	41	0	4	96	48	0
TAP	41	0	5
TAP	41	48	7
TAP	41	96	7
TTP	41	192	0	E	0	M1
TTP	41	204	7	E	0	M1
TTP	41	216	6	E	0	M1
TTP	41	228	5	E	0	M1
TTP	41	240	4	E	0	M1
TTP	41	252	3	E	0	M1
TTP	41	264	2	E	0	M1
TTP	41	276	1	E	0	M1
TTP	41	288	0	E	0	M1
XTP	41	336	1
XTP	41	336	6
BST	42	0	1
SCR	42	0	1	96	32	3
BST	42	0	6
SCL	42	0	6	96	32	4
THO	42	192	0	72	C	1	M1
TTP	42	192	1	B	0	M1
TTP	42	192	2	E	0	M1
TTP	42	192	6	B	0	M1
TTP	42	192	6	E	0	M1
STR	43	0	0
SCR	43	0	0	96	48	3
TAP	43	0	7
TAP	43	96	0
TAP	43	96	6
STR	43	168	4
SCR	43	168	4	96	48	7
TAP	43	240	0
TAP	43	288	0
XTP	44	0	1
TAP	44	0	2
TAP	44	72	5
XST	44	72	6
SI_	44	72	6	96	48	2
XTP	44	144	4
XTP	44	192	0
BRK	44	288	3
BRK	44	288	4
HLD	45	0	0	768
TAP	45	144	5
TAP	45	288	5
TAP	46	0	4
TAP	46	144	3
TTP	46	288	0	C	1	M1
HLD	47	0	7	768
TAP	47	144	2
TAP	47	288	2
TAP	48	0	3
TAP	48	144	4
TTP	48	288	0	C	1	M1
XHO	49	0	0	96
TAP	49	96	7
TAP	49	144	0
HLD	49	144	6	96
TAP	49	240	0
TAP	49	288	1
TAP	49	288	5
XHO	50	0	2	96
XTP	50	0	6
TAP	50	96	6
TAP	50	144	3
HLD	50	144	5	96
TAP	50	240	3
TTP	50	288	0	C	1	M1
XTP	50	288	4
XHO	51	0	1	96
TAP	51	0	7
TAP	51	48	6
TAP	51	96	5
TAP	51	144	2
TAP	51	144	4
TAP	51	192	0
XHO	51	192	6	96
TAP	51	240	1
TAP	51	288	2
TAP	51	336	3
TAP	51	336	5
HLD	52	0	2	48
XHO	52	0	4	48
XHO	52	72	3	48
HLD	52	72	6	48
HLD	52	144	1	48
XHO	52	144	5	48
XHO	52	216	3	48
HLD	52	216	7	48
XTP	52	288	4
TAP	52	288	6
TAP	52	336	0
XTP	52	336	7
BST	53	0	1
SI_	53	0	1	96	48	5
TAP	53	0	3
TAP	53	96	1
TAP	53	96	7
STR	53	168	4
SCL	53	168	4	96	48	1
TAP	53	168	6
TAP	53	240	7
TAP	53	288	7
TAP	54	0	2
TAP	54	0	4
TAP	54	48	0
TAP	54	96	1
TAP	54	96	3
TAP	54	144	7
TAP	54	192	2
TAP	54	192	4
TAP	54	240	0
TAP	54	288	1
TAP	54	288	3
TAP	54	336	7
TAP	55	0	4
STR	55	0	6
SI_	55	0	6	96	48	2
TAP	55	96	0
TAP	55	96	6
TAP	55	168	1
STR	55	168	3
SCR	55	168	3	96	48	6
TAP	55	240	0
TAP	55	288	0
TAP	56	0	3
TAP	56	0	5
TAP	56	48	7
TAP	56	96	4
TAP	56	96	6
TAP	56	144	0
TAP	56	192	3
TAP	56	192	5
TAP	56	240	7
TAP	56	288	4
TAP	56	288	6
TAP	56	336	0
TAP	57	0	1
STR	57	0	3
SI_	57	0	3	96	48	7
TAP	57	96	2
TAP	57	96	3
STR	57	168	4
SI_	57	168	4	96	48	0
TAP	57	168	6
TAP	57	240	7
TAP	57	288	7
TAP	58	0	1
TAP	58	0	3
TAP	58	48	0
TAP	58	96	2
TAP	58	96	4
TAP	58	144	7
TAP	58	192	3
TAP	58	192	5
TAP	58	240	0
TAP	58	288	4
TAP	58	288	6
TAP	58	336	7
STR	59	0	4
SI_	59	0	4	96	48	0
TAP	59	0	5
TAP	59	96	4
TAP	59	96	6
TAP	59	168	1
STR	59	168	3
SI_	59	168	3	96	48	7
TAP	59	240	0
TAP	59	288	0
TAP	60	0	4
TAP	60	0	6
TAP	60	72	1
TAP	60	72	3
XTP	60	144	0
TTP	60	144	5	B	0	M1
TTP	60	144	6	E	0	M1
TTP	60	192	2	B	0	M1
TTP	60	192	2	E	0	M1
XTP	60	192	7
BRK	60	288	3
BRK	60	288	4
STR	61	0	1
SI_	61	0	1	96	48	5
TAP	61	0	5
TAP	61	96	1
HLD	61	96	7	96
TAP	61	192	0
TAP	61	240	3
TAP	61	240	4
TAP	61	288	1
STR	61	288	6
SI_	61	288	6	96	48	0
STR	62	0	2
SI_	62	0	2	96	48	4
TAP	62	0	6
TAP	62	48	1
TAP	62	96	2
STR	62	96	6
SI_	62	96	6	96	48	2
TAP	62	144	7
STR	62	192	1
SI_	62	192	1	96	48	7
TAP	62	192	6
TAP	62	240	0
TAP	62	288	1
STR	62	288	5
SI_	62	288	5	96	48	1
TAP	62	336	6
STR	63	0	3
SI_	63	0	3	96	48	0
TAP	63	0	5
TAP	63	48	2
TAP	63	96	3
STR	63	96	6
SI_	63	96	6	96	48	3
TAP	63	144	7
STR	63	192	1
SI_	63	192	1	96	48	4
TAP	63	192	6
TAP	63	240	0
TAP	63	288	1
STR	63	288	6
SI_	63	288	6	96	48	0
TAP	63	336	7
STR	64	0	2
SI_	64	0	2	96	48	6
TAP	64	0	6
TAP	64	48	1
TAP	64	96	2
STR	64	96	4
SI_	64	96	4	96	48	7
TAP	64	144	5
STR	64	192	1
SI_	64	192	1	96	48	5
TAP	64	192	4
TAP	64	240	0
TAP	64	288	1
STR	64	288	6
SCL	64	288	6	96	120	0
TAP	64	336	7
TAP	65	0	2
TAP	65	0	6
TAP	65	144	3
TAP	65	192	2
TAP	65	192	4
TAP	65	240	1
TAP	65	240	5
TAP	65	288	0
TAP	65	288	6
TAP	65	336	7
STR	66	0	2
SCL	66	0	2	96	48	7
STR	66	0	4
SCR	66	0	4	96	48	7
STR	66	96	2
SCR	66	96	2	96	32	4
TAP	66	96	4
STR	66	192	7
SF_	66	192	7	96	48	3
TAP	66	288	7
STR	67	0	1
SI_	67	0	1	96	32	3
STR	67	0	5
SI_	67	0	5	96	32	7
TAP	67	96	1
TAP	67	96	5
STR	67	168	0
SF_	67	168	0	96	48	4
TAP	67	168	4
TAP	67	240	1
TAP	67	240	7
TTP	67	288	0	C	1	M1
HLD	68	0	3	48
XHO	68	0	5	48
XHO	68	72	1	48
HLD	68	72	4	48
HLD	68	144	2	48
XHO	68	144	6	48
XHO	68	216	0	48
HLD	68	216	5	48
XST	68	288	4
SCL	68	288	4	96	192	5
TAP	68	288	6
XTP	68	336	2
TAP	68	336	5
BRK	69	0	0
TAP	69	0	4
STR	69	192	4
SI_	69	192	4	96	48	0
TAP	69	288	6
TAP	70	0	1
TAP	70	0	3
TAP	70	48	0
TAP	70	96	1
TAP	70	96	3
TAP	70	144	7
TAP	70	192	1
TAP	70	192	3
TAP	70	240	0
TAP	70	288	1
TAP	70	288	3
TAP	70	336	7
TAP	71	0	4
STR	71	0	6
SI_	71	0	6	96	48	2
TAP	71	96	6
TAP	71	96	7
STR	71	168	1
SI_	71	168	1	96	48	5
TAP	71	168	3
TAP	71	240	0
TAP	71	288	0
TAP	72	0	4
TAP	72	0	6
TAP	72	48	5
TAP	72	96	1
TAP	72	96	4
TAP	72	144	2
TAP	72	192	3
TAP	72	192	7
TAP	72	240	6
TAP	72	288	1
TAP	72	288	5
TAP	72	336	2
TAP	73	0	3
STR	73	0	4
SCR	73	0	4	96	96	3
TAP	73	48	0
HLD	73	96	0	240
TTP	73	192	4	E	0	M1
TTP	73	204	5	E	0	M1
TTP	73	216	6	E	0	M1
TTP	73	228	7	E	0	M1
TTP	73	240	0	E	0	M1
TTP	73	252	1	E	0	M1
TTP	73	264	2	E	0	M1
TTP	73	276	3	E	0	M1
TTP	73	288	4	E	0	M1
XTP	73	336	7
BST	74	0	0
SCR	74	0	0	96	32	3
BST	74	0	7
SCL	74	0	7	96	32	4
THO	74	192	0	72	C	1	M1
TTP	74	192	1	B	0	M1
TTP	74	192	2	E	0	M1
TTP	74	192	6	B	0	M1
TTP	74	192	6	E	0	M1
TAP	75	0	0
STR	75	0	7
SI_	75	0	7	96	48	3
TAP	75	96	3
TAP	75	96	7
STR	75	168	1
SI_	75	168	1	96	48	5
TAP	75	240	3
BRK	75	288	7
STR	76	0	1
SI_	76	0	1	96	32	3
STR	76	0	5
SI_	76	0	5	96	32	7
TAP	76	72	1
TAP	76	72	5
XTP	76	144	0
XTP	76	144	4
XST	76	192	2
SUL	76	192	2	96	48	6
XST	76	192	6
SUL	76	192	6	96	48	2
TTP	76	288	0	C	1	M1
BRK	76	288	2
BRK	76	288	6

T_REC_TAP	422
T_REC_BRK	14
T_REC_XTP	30
T_REC_HLD	38
T_REC_XHO	22
T_REC_STR	78
T_REC_BST	5
T_REC_XST	20
T_REC_TTP	42
T_REC_THO	2
T_REC_SLD	103
T_REC_ALL	776
T_NUM_TAP	592
T_NUM_BRK	19
T_NUM_HLD	62
T_NUM_SLD	103
T_NUM_ALL	776
T_JUDGE_TAP	611
T_JUDGE_HLD	138
T_JUDGE_SLD	103
T_JUDGE_ALL	852
TTM_EACHPAIRS	190
TTM_SCR_TAP	296000
TTM_SCR_BRK	49400
TTM_SCR_HLD	62000
TTM_SCR_SLD	154500
TTM_SCR_ALL	561900
TTM_SCR_S	543200
TTM_SCR_SS	560000
TTM_RAT_ACV	10033

