VERSION	0.00.00	1.03.00
FES_MODE	0
BPM_DEF	137.000	137.000	137.000	137.000
MET_DEF	4	4
RESOLUTION	384
CLK_DEF	384
COMPATIBLE_CODE	MA2

BPM	0	0	137.000
MET	0	0	4	4

XTP	1	0	1
XTP	1	0	6
TAP	1	144	3
TAP	1	144	5
TAP	1	240	3
TAP	1	240	5
TAP	1	336	2
TAP	1	336	4
TAP	2	48	2
TAP	2	48	4
TAP	2	144	3
TAP	2	144	5
TAP	2	240	2
TAP	2	240	6
TAP	2	288	2
TAP	2	288	6
TAP	3	0	6
TAP	3	0	7
TAP	3	96	4
TAP	3	96	5
TAP	3	192	2
TAP	3	192	3
TAP	3	288	0
TAP	3	288	1
TAP	4	0	6
TAP	4	0	7
TAP	4	96	4
TAP	4	96	5
XTP	4	192	3
XTP	4	192	6
STR	4	288	7
SI_	4	288	7	96	48	3
HLD	5	0	2	1440
TAP	5	192	3
TAP	5	288	3
TAP	6	0	5
TAP	6	96	1
TAP	6	192	6
TAP	6	288	7
BRK	7	0	3
TAP	7	96	5
TAP	7	144	5
TAP	7	192	5
TAP	7	288	0
TAP	8	0	7
STR	8	96	3
SI_	8	96	3	96	48	7
HLD	9	0	1	1440
BRK	9	0	7
TAP	9	96	4
TAP	9	144	4
TAP	9	192	4
TAP	9	288	3
TAP	10	0	5
TAP	10	96	2
TAP	10	192	0
STR	10	288	3
SI_	10	288	3	96	48	7
XTP	11	144	7
XTP	11	192	7
TAP	12	0	5
TAP	12	96	2
TAP	12	192	4
TAP	12	288	3
HLD	13	0	2	1440
TAP	13	0	5
TAP	13	96	5
TAP	13	192	3
TAP	13	288	3
XTP	14	0	0
XTP	14	96	3
XTP	14	192	0
XTP	14	288	3
TAP	15	0	4
TAP	15	48	4
TAP	15	96	4
TAP	15	192	3
TAP	15	288	5
XTP	16	0	0
XTP	16	96	3
XTP	16	192	0
XTP	16	288	3
HLD	17	0	1	1152
TAP	17	0	5
TAP	17	96	3
TAP	17	192	4
TAP	17	240	4
TAP	17	288	4
BRK	18	0	7
TAP	18	96	5
TAP	18	192	2
TAP	18	288	4
TAP	19	0	3
TAP	19	96	5
TAP	19	144	5
TAP	19	192	5
STR	19	288	4
SI_	19	288	4	96	48	0
XTP	20	288	1
XTP	20	288	6
STR	21	0	2
SCL	21	0	2	96	192	7
STR	21	0	7
SCL	21	0	7	96	192	4
STR	22	0	0
SCR	22	0	0	96	192	3
STR	22	0	5
SCR	22	0	5	96	192	0
STR	23	0	2
SCL	23	0	2	96	192	7
STR	23	0	7
SCL	23	0	7	96	192	4
STR	24	0	0
SCR	24	0	0	96	192	3
STR	24	0	5
SCR	24	0	5	96	192	0
HLD	25	0	2	96
HLD	25	96	0	96
HLD	25	192	7	96
TAP	25	288	5
HLD	26	0	5	96
HLD	26	96	7	96
HLD	26	192	0	96
TAP	26	288	2
HLD	27	0	3	96
HLD	27	0	4	96
HLD	27	192	2	96
HLD	27	192	5	96
HLD	28	0	1	96
HLD	28	0	6	96
HLD	28	192	0	96
BRK	28	288	7
TAP	29	0	6
TAP	29	0	7
STR	29	96	4
SUR	29	96	4	96	96	1
STR	29	96	5
SCR	29	96	5	96	96	0
TAP	30	0	0
TAP	30	0	1
STR	30	96	2
SCL	30	96	2	96	96	7
STR	30	96	3
SUL	30	96	3	96	96	6
TAP	31	0	6
TAP	31	0	7
TAP	31	96	4
TAP	31	96	5
TAP	31	192	2
TAP	31	192	3
TAP	31	288	0
TAP	31	288	1
TAP	32	0	6
TAP	32	48	6
TAP	32	96	7
TAP	32	192	1
TAP	32	240	1
TAP	32	288	0
TAP	33	0	2
TAP	33	0	3
TAP	33	96	2
TAP	33	96	3
TAP	33	192	4
TAP	33	192	5
TAP	33	288	4
TAP	33	288	5
HLD	34	0	6	96
TAP	34	96	7
HLD	34	192	1	96
TAP	34	288	0
TAP	35	0	2
TAP	35	0	3
TAP	35	96	4
TAP	35	144	4
TAP	35	192	3
TAP	35	192	5
BRK	35	288	2
BRK	35	288	6
XTP	36	0	0
XTP	36	72	2
XTP	36	144	3
XTP	36	216	4
XTP	36	288	5
XTP	36	336	5
TAP	37	0	4
TAP	37	0	6
TAP	37	96	3
TAP	37	96	7
TAP	37	192	1
TAP	37	192	3
HLD	37	288	0	96
TAP	37	288	4
TAP	38	0	6
XTP	38	48	6
XTP	38	144	1
XTP	38	144	7
XTP	38	240	0
XTP	38	240	6
XTP	38	336	1
XTP	38	336	7
TAP	39	0	1
TAP	39	0	7
TAP	39	96	4
TAP	39	96	5
TAP	39	192	0
TAP	39	192	6
TAP	39	288	2
TAP	39	288	3
HLD	40	0	1	96
HLD	40	96	3	96
HLD	40	192	4	96
TAP	40	288	6
STR	41	0	7
SI_	41	0	7	96	96	4
STR	41	192	3
SI_	41	192	3	96	96	0
XTP	42	0	7
BRK	42	96	1
BRK	42	96	6
THO	42	192	0	96	C	1	M1
XTP	43	0	0
XTP	43	0	7
XTP	43	96	0
XTP	43	96	7
XTP	43	192	2
XTP	43	192	5
XTP	43	240	2
XTP	43	240	5
XTP	43	288	2
XTP	43	288	5
STR	44	0	1
SI_	44	0	1	96	48	4
STR	44	0	6
SI_	44	0	6	96	48	3
BRK	44	192	0
BRK	44	192	7
TAP	44	288	3
TAP	44	288	4
TAP	45	0	2
HLD	45	0	5	768
TTP	45	192	5	E	0	M1
TTP	45	288	6	E	0	M1
TTP	46	0	7	E	0	M1
TTP	46	96	0	E	0	M1
TTP	46	192	1	E	0	M1
HLD	47	0	2	576
TTP	47	192	3	E	0	M1
TTP	47	288	2	E	0	M1
TTP	48	0	1	E	0	M1
TTP	48	96	0	E	0	M1
TTP	48	192	7	E	0	M1
HLD	49	0	5	192
TAP	49	96	4
HLD	49	192	2	192
TAP	49	288	3
HLD	50	0	5	192
TAP	50	96	4
HLD	50	192	2	192
TAP	50	288	3
HLD	51	0	6	192
TAP	51	96	4
HLD	51	192	1	192
TAP	51	288	3
XTP	52	0	7
XTP	52	72	7
XTP	52	144	0
XTP	52	216	0
BRK	52	288	2
BRK	52	288	5
TAP	53	0	4
TAP	53	0	6
TAP	53	96	0
TAP	53	192	1
TAP	53	192	3
TAP	53	288	7
TAP	54	0	5
TAP	54	48	5
TAP	54	96	4
TAP	54	192	2
TAP	54	240	2
TAP	54	288	3
TAP	55	0	1
TAP	55	0	3
TAP	55	96	7
TAP	55	192	4
TAP	55	192	6
TAP	55	288	0
TAP	56	0	2
TAP	56	48	2
TAP	56	96	3
TAP	56	192	5
TAP	56	240	5
TAP	56	288	4
TAP	57	0	3
TAP	57	0	6
TAP	57	96	0
TAP	57	96	7
TAP	57	192	1
TAP	57	192	4
TAP	57	288	0
TAP	57	288	7
TAP	58	0	6
TAP	58	48	6
TAP	58	96	4
TAP	58	192	1
TAP	58	240	1
TAP	58	288	3
TAP	59	0	1
TAP	59	0	4
TAP	59	96	0
TAP	59	96	7
TAP	59	192	3
TAP	59	192	6
TAP	59	288	0
TAP	59	288	7
STR	60	0	3
SI_	60	0	3	96	48	0
STR	60	0	4
SI_	60	0	4	96	48	7
XTP	60	192	0
XTP	60	192	7
TAP	60	288	2
TAP	60	288	5
TAP	61	0	0
TAP	61	0	1
STR	61	96	2
SCL	61	96	2	96	96	7
STR	61	96	3
SUL	61	96	3	96	96	6
TAP	62	0	6
TAP	62	0	7
STR	62	96	4
SUR	62	96	4	96	96	1
STR	62	96	5
SCR	62	96	5	96	96	0
TAP	63	0	0
TAP	63	0	1
TAP	63	96	2
TAP	63	96	3
TAP	63	192	4
TAP	63	192	5
TAP	63	288	6
TAP	63	288	7
TAP	64	0	1
TAP	64	48	1
TAP	64	96	0
TAP	64	192	6
TAP	64	240	6
TAP	64	288	7
TAP	65	0	4
TAP	65	0	5
TAP	65	96	3
TAP	65	96	6
TAP	65	192	2
TAP	65	192	3
TAP	65	288	1
TAP	65	288	4
HLD	66	0	2	96
TAP	66	96	0
HLD	66	192	5	96
TAP	66	288	7
TAP	67	0	4
TAP	67	0	5
TAP	67	96	3
TAP	67	144	3
TAP	67	192	2
TAP	67	192	4
BRK	67	288	1
BRK	67	288	5
XTP	68	0	7
XTP	68	72	5
XTP	68	144	4
XTP	68	216	3
XTP	68	288	2
XTP	68	336	2
TAP	69	0	1
TAP	69	0	3
TAP	69	96	0
TAP	69	96	4
TAP	69	192	4
TAP	69	192	6
TAP	69	288	3
HLD	69	288	7	96
TAP	70	0	1
XTP	70	48	1
XTP	70	144	0
XTP	70	144	6
XTP	70	240	1
XTP	70	240	7
XTP	70	336	0
XTP	70	336	6
TAP	71	0	0
TAP	71	0	6
TAP	71	96	2
TAP	71	96	3
TAP	71	192	1
TAP	71	192	7
TAP	71	288	4
TAP	71	288	5
HLD	72	0	6	96
HLD	72	96	4	96
HLD	72	192	3	96
TAP	72	288	1
STR	73	0	0
SI_	73	0	0	96	96	3
STR	73	192	4
SI_	73	192	4	96	96	7
XTP	74	0	0
BRK	74	96	1
BRK	74	96	6
THO	74	192	0	96	C	1	M1
XTP	75	0	0
XTP	75	0	7
XTP	75	96	0
XTP	75	96	7
XTP	75	192	3
XTP	75	192	4
XTP	75	240	2
XTP	75	240	5
XTP	75	288	1
XTP	75	288	6
STR	76	0	2
SI_	76	0	2	96	48	7
STR	76	0	5
SI_	76	0	5	96	48	0
TAP	76	192	3
TAP	76	192	4
BRK	76	288	1
BRK	76	288	6

T_REC_TAP	232
T_REC_BRK	18
T_REC_XTP	70
T_REC_HLD	37
T_REC_XHO	0
T_REC_STR	30
T_REC_BST	0
T_REC_XST	0
T_REC_TTP	10
T_REC_THO	2
T_REC_SLD	30
T_REC_ALL	429
T_NUM_TAP	342
T_NUM_BRK	18
T_NUM_HLD	39
T_NUM_SLD	30
T_NUM_ALL	429
T_JUDGE_TAP	360
T_JUDGE_HLD	220
T_JUDGE_SLD	30
T_JUDGE_ALL	610
TTM_EACHPAIRS	113
TTM_SCR_TAP	171000
TTM_SCR_BRK	46800
TTM_SCR_HLD	39000
TTM_SCR_SLD	45000
TTM_SCR_ALL	301800
TTM_SCR_S	291000
TTM_SCR_SS	300000
TTM_RAT_ACV	10060

