VERSION	0.00.00	1.03.00
FES_MODE	0
BPM_DEF	137.000	137.000	137.000	137.000
MET_DEF	4	4
RESOLUTION	384
CLK_DEF	384
COMPATIBLE_CODE	MA2

BPM	0	0	137.000
MET	0	0	4	4

XST	1	0	3
SXR	1	0	3	96	480	0
XST	1	0	4
SXL	1	0	4	96	480	7
XTP	3	0	0
XTP	3	0	7
XTP	3	192	1
XTP	3	192	6
TAP	4	0	2
TAP	4	0	5
TAP	4	96	2
TAP	4	96	5
TAP	4	192	3
TAP	4	192	4
HLD	5	0	5	192
TAP	5	192	4
HLD	6	0	2	192
TAP	6	192	3
HLD	7	0	5	192
TAP	7	192	4
TAP	8	0	2
TAP	8	0	3
TAP	8	96	2
TAP	8	96	3
TAP	8	192	2
TAP	8	192	3
HLD	9	0	1	192
TAP	9	192	0
HLD	10	0	6	192
TAP	10	192	7
HLD	11	0	1	192
TAP	11	192	0
TAP	12	0	6
TAP	12	0	7
TAP	12	96	6
TAP	12	96	7
TAP	12	192	6
TAP	12	192	7
TAP	13	0	5
TAP	13	96	5
TAP	13	192	4
TAP	13	192	5
XTP	14	0	2
XTP	14	0	3
XTP	14	192	2
XTP	14	192	3
TAP	15	0	5
TAP	15	96	5
TAP	15	192	4
TAP	15	192	5
XTP	16	0	2
XTP	16	0	3
XTP	16	192	2
XTP	16	192	3
TAP	17	0	1
TAP	17	96	1
TAP	17	192	0
TAP	17	192	1
TAP	18	0	6
TAP	18	96	6
TAP	18	192	6
TAP	18	192	7
TAP	19	0	1
TAP	19	96	1
TAP	19	192	0
TAP	19	288	0
BST	20	0	0
SI_	20	0	0	96	144	3
BST	20	0	7
SI_	20	0	7	96	144	4
STR	21	0	5
SCR	21	0	5	96	144	0
STR	22	0	1
SCR	22	0	1	96	144	4
STR	23	0	5
SCR	23	0	5	96	144	0
STR	24	0	1
SUR	24	0	1	96	144	5
TTP	25	0	6	E	0	L1
TTP	25	96	5	B	0	L1
TTP	25	192	4	B	0	L1
TTP	26	0	2	E	0	L1
TTP	26	96	2	B	0	L1
TTP	26	192	3	B	0	L1
TTP	27	0	5	B	0	L1
TTP	27	0	5	E	0	L1
TTP	27	192	2	B	0	L1
TTP	27	192	3	E	0	L1
XST	28	0	3
SI_	28	0	3	96	144	0
XST	28	0	4
SI_	28	0	4	96	144	7
BRK	29	0	1
TAP	29	96	1
TAP	29	192	0
TAP	29	192	1
TAP	29	288	0
TAP	29	288	1
TAP	30	0	6
TAP	30	96	6
TAP	30	192	6
TAP	30	192	7
TAP	30	288	6
TAP	30	288	7
TAP	31	0	5
TAP	31	96	5
TAP	31	192	4
TAP	31	288	4
TAP	32	0	3
TAP	32	96	3
TAP	32	192	2
TAP	32	192	4
HLD	33	0	1	96
TAP	33	96	0
TAP	33	192	0
TAP	33	192	1
HLD	34	0	6	96
TAP	34	96	7
TAP	34	192	6
TAP	34	192	7
TAP	35	0	5
TAP	35	96	4
TAP	35	96	5
TAP	35	192	2
TAP	35	288	2
TAP	35	288	3
XTP	36	0	3
XTP	36	0	4
XTP	36	96	3
XTP	36	96	4
XTP	36	192	2
XTP	36	192	5
STR	37	0	6
SI_	37	0	6	96	144	3
TAP	38	0	2
TAP	38	96	2
TAP	38	192	2
TAP	38	192	3
STR	39	0	1
SI_	39	0	1	96	144	4
TAP	40	0	5
TAP	40	96	5
TAP	40	192	4
TAP	40	192	5
STR	41	0	6
SCL	41	0	6	96	144	3
STR	42	0	2
SCL	42	0	2	96	144	7
TAP	43	0	6
TAP	43	96	6
TAP	43	96	7
TAP	43	192	1
TAP	43	288	0
TAP	43	288	1
XTP	44	0	7
XTP	44	96	0
XTP	44	96	7
XTP	44	192	1
XTP	44	192	6
TTP	45	0	0	E	0	L1
TTP	45	192	1	E	0	L1
TTP	46	0	2	E	0	L1
TTP	46	192	3	E	0	L1
TTP	47	0	4	E	0	L1
TTP	47	192	5	E	0	L1
TTP	48	0	6	E	0	L1
TTP	48	192	7	E	0	L1
TTP	49	0	0	B	0	L1
TTP	49	0	7	B	0	L1
TTP	49	192	1	B	0	L1
TTP	49	192	6	B	0	L1
TTP	50	0	2	B	0	L1
TTP	50	0	5	B	0	L1
TTP	50	192	3	E	0	L1
TTP	50	192	5	E	0	L1
XTP	51	0	3
XTP	51	0	4
XTP	51	192	2
XTP	51	192	5
XTP	52	0	1
XTP	52	0	6
XTP	52	96	1
XTP	52	96	6
XTP	52	192	0
XTP	52	192	7
TAP	53	0	6
TAP	53	96	6
TAP	53	192	7
TAP	53	288	7
TAP	54	0	0
TAP	54	96	0
TAP	54	192	1
TAP	54	192	7
TAP	55	0	2
TAP	55	96	2
TAP	55	192	3
TAP	55	288	3
TAP	56	0	4
TAP	56	96	4
TAP	56	192	3
TAP	56	192	4
TAP	57	0	5
TAP	57	96	5
TAP	57	192	4
TAP	57	288	4
TAP	58	0	3
TAP	58	96	3
TAP	58	192	2
TAP	58	192	4
TAP	59	0	1
TAP	59	96	1
TAP	59	192	0
TAP	59	288	0
XTP	60	0	7
XTP	60	96	0
XTP	60	96	7
XTP	60	192	1
XTP	60	192	6
BRK	61	0	6
TAP	61	96	6
TAP	61	96	7
TAP	61	192	6
TAP	61	288	6
TAP	61	288	7
TAP	62	0	1
TAP	62	96	0
TAP	62	96	1
TAP	62	192	1
TAP	62	288	0
TAP	62	288	1
TAP	63	0	2
TAP	63	96	2
TAP	63	192	3
TAP	63	288	3
TAP	64	0	4
TAP	64	96	3
TAP	64	96	4
TAP	64	192	2
TAP	64	192	5
HLD	65	0	6	96
TAP	65	96	7
TAP	65	192	0
TAP	65	192	5
HLD	66	0	1	96
TAP	66	96	0
TAP	66	192	2
TAP	66	192	7
TAP	67	0	6
TAP	67	96	6
TAP	67	192	5
TAP	67	288	5
XTP	68	0	3
XTP	68	0	4
XTP	68	96	3
XTP	68	96	4
XTP	68	192	2
XTP	68	192	5
STR	69	0	6
SI_	69	0	6	96	144	3
TAP	70	0	2
TAP	70	96	2
TAP	70	192	2
TAP	70	192	3
STR	71	0	1
SI_	71	0	1	96	144	4
TAP	72	0	5
TAP	72	96	5
TAP	72	192	4
TAP	72	192	5
STR	73	0	6
SI_	73	0	6	96	144	3
TAP	74	0	2
TAP	74	96	2
TAP	74	192	3
TAP	74	192	4
TAP	75	0	5
TAP	75	96	4
TAP	75	96	5
TAP	75	192	2
TAP	75	288	2
TAP	75	288	3
XTP	76	0	4
XTP	76	96	3
XTP	76	96	4
XTP	76	192	2
XTP	76	192	5
BRK	76	288	2
BRK	76	288	5

T_REC_TAP	165
T_REC_BRK	4
T_REC_XTP	49
T_REC_HLD	10
T_REC_XHO	0
T_REC_STR	11
T_REC_BST	2
T_REC_XST	4
T_REC_TTP	26
T_REC_THO	0
T_REC_SLD	17
T_REC_ALL	288
T_NUM_TAP	255
T_NUM_BRK	6
T_NUM_HLD	10
T_NUM_SLD	17
T_NUM_ALL	288
T_JUDGE_TAP	261
T_JUDGE_HLD	32
T_JUDGE_SLD	17
T_JUDGE_ALL	310
TTM_EACHPAIRS	69
TTM_SCR_TAP	127500
TTM_SCR_BRK	15600
TTM_SCR_HLD	10000
TTM_SCR_SLD	25500
TTM_SCR_ALL	178600
TTM_SCR_S	172700
TTM_SCR_SS	178000
TTM_RAT_ACV	10033

