VERSION	0.00.00	1.03.00
FES_MODE	0
BPM_DEF	 85.000	153.000	153.000	 49.000
MET_DEF	4	4
RESOLUTION	384
CLK_DEF	384
COMPATIBLE_CODE	MA2

BPM	0	0	 85.000
BPM	8	0	 80.000
BPM	8	48	 75.000
BPM	8	96	 70.000
BPM	8	144	 60.000
BPM	8	192	 49.000
BPM	9	0	153.000
MET	0	0	4	4

HLD	1	0	4	288
TTP	1	48	3	E	0	M1
TTP	1	96	4	E	0	M1
TTP	1	144	5	E	0	M1
TTP	1	192	6	E	0	M1
TTP	1	240	0	C	0	M1
TTP	1	288	1	E	0	M1
TTP	1	336	2	E	0	M1
HLD	2	0	3	288
TTP	2	48	5	E	0	M1
TTP	2	96	4	E	0	M1
TTP	2	144	3	E	0	M1
TTP	2	192	2	E	0	M1
TTP	2	240	0	C	0	M1
TTP	2	288	0	E	0	M1
TTP	2	336	7	E	0	M1
HLD	3	0	5	96
TTP	3	48	6	B	0	M1
TTP	3	96	4	B	0	M1
TTP	3	144	4	E	0	M1
HLD	3	192	2	96
TTP	3	240	0	B	0	M1
TTP	3	288	0	C	0	M1
TTP	3	336	4	B	0	M1
HLD	4	0	5	288
TTP	4	48	4	E	0	M1
TTP	4	96	4	B	0	M1
TTP	4	144	5	B	0	M1
TTP	4	192	7	E	0	M1
TTP	4	240	0	E	0	M1
TTP	4	288	1	E	0	M1
TTP	4	336	2	E	0	M1
HLD	5	0	3	96
TTP	5	48	0	B	0	M1
TTP	5	96	0	C	0	M1
TTP	5	144	4	B	0	M1
HLD	5	192	5	96
TTP	5	240	6	E	0	M1
TTP	5	288	4	B	0	M1
TTP	5	336	4	E	0	M1
HLD	6	0	2	96
TTP	6	48	1	E	0	M1
TTP	6	96	0	C	0	M1
TTP	6	144	5	E	0	M1
HLD	6	192	5	96
TTP	6	240	7	E	0	M1
TTP	6	288	6	E	0	M1
TTP	6	336	4	B	0	M1
HLD	7	0	3	96
TTP	7	48	2	E	0	M1
TTP	7	96	1	E	0	M1
TTP	7	144	0	E	0	M1
HLD	7	192	6	96
TTP	7	240	5	E	0	M1
TTP	7	288	4	E	0	M1
TTP	7	336	3	E	0	M1
TTP	8	0	2	E	0	M1
TTP	8	48	0	E	0	M1
TTP	8	96	6	E	0	M1
TTP	8	144	4	E	0	M1
THO	8	192	0	192	C	0	M1
XTP	9	192	3
XTP	9	216	4
XTP	9	240	3
XTP	9	264	4
XTP	9	288	2
XTP	9	312	5
XTP	9	336	2
XTP	10	0	3
XTP	10	0	4
TAP	10	48	5
TAP	10	96	5
TAP	10	144	2
TAP	10	168	3
TAP	10	216	2
TAP	10	216	3
TAP	10	264	5
TAP	10	288	4
TAP	10	336	4
TAP	10	336	5
HLD	11	0	6	72
TAP	11	72	7
TAP	11	120	0
TAP	11	120	1
TAP	11	168	2
TAP	11	168	3
TAP	11	216	5
TAP	11	240	4
TAP	11	264	5
TAP	11	288	3
TAP	11	312	4
TAP	11	336	3
TAP	12	0	3
TAP	12	0	4
TAP	12	48	2
TAP	12	96	2
TAP	12	144	5
TAP	12	168	4
TAP	12	216	4
TAP	12	216	5
TAP	12	264	6
TAP	12	288	7
TAP	12	336	6
TAP	12	336	7
HLD	13	0	1	72
TAP	13	72	0
TAP	13	120	2
TAP	13	120	3
TAP	13	168	4
TAP	13	168	5
TAP	13	216	6
TAP	13	240	7
TAP	13	264	6
TAP	13	288	0
TAP	13	312	7
TAP	13	336	0
XTP	14	0	0
XTP	14	0	1
TAP	14	48	2
TAP	14	96	2
TAP	14	144	5
TAP	14	168	4
TAP	14	216	4
TAP	14	240	5
TAP	14	288	6
TAP	14	288	7
TAP	14	336	0
TAP	15	0	0
HLD	15	0	7	96
XTP	15	48	1
XTP	15	64	2
XTP	15	80	3
XTP	15	96	4
TAP	15	144	6
TAP	15	192	4
TAP	15	216	5
TAP	15	240	4
TAP	15	288	2
TAP	15	288	3
TAP	16	0	0
TAP	16	0	1
TAP	16	48	2
TAP	16	72	3
TAP	16	120	3
TAP	16	144	2
TAP	16	192	5
TAP	16	216	4
TAP	16	264	4
TAP	16	288	5
TAP	16	336	6
TAP	16	336	7
XST	17	0	6
SI_	17	0	6	96	48	3
XST	17	0	7
SI_	17	0	7	96	48	2
BRK	17	96	6
BRK	17	96	7
XTP	17	192	1
XTP	17	192	4
STR	17	288	1
SXL	17	288	1	96	288	4
TAP	17	288	7
TAP	18	0	0
TAP	18	48	0
TAP	18	144	7
TAP	18	240	7
TAP	18	288	6
TAP	18	336	5
HLD	19	0	4	72
HLD	19	72	3	72
TAP	19	144	2
TAP	19	192	2
TAP	19	288	1
TAP	19	336	2
TAP	20	0	3
TAP	20	0	4
TAP	20	48	5
HLD	20	72	4	72
TAP	20	144	5
TAP	20	192	5
TAP	20	240	6
TAP	20	288	7
TAP	20	336	0
TAP	21	0	1
TAP	21	48	2
TAP	21	96	3
TAP	21	144	4
TAP	21	192	1
TAP	21	192	5
TAP	21	288	0
STR	21	288	6
SXR	21	288	6	96	240	3
TAP	22	0	7
TAP	22	48	7
TAP	22	144	0
TAP	22	240	0
TAP	22	288	1
TAP	22	336	2
HLD	23	0	3	72
HLD	23	72	4	72
TAP	23	144	5
TAP	23	192	5
TAP	23	288	6
TAP	23	336	5
TAP	24	0	3
TAP	24	0	4
TAP	24	48	2
HLD	24	72	3	72
TAP	24	144	2
TAP	24	192	2
TAP	24	240	1
TAP	24	288	0
TAP	24	336	7
STR	25	0	6
SI_	25	0	6	96	48	3
TAP	25	96	2
XTP	25	192	3
XTP	25	192	4
TAP	25	240	2
TAP	25	264	3
TAP	25	288	2
TAP	25	336	5
TAP	25	360	4
BST	26	0	5
SCR	26	0	5	96	48	7
TAP	26	72	4
TAP	26	96	5
TAP	26	144	3
STR	26	192	3
SCL	26	192	3	96	48	1
TAP	26	264	4
TAP	26	288	3
TAP	26	336	4
STR	27	0	4
SCR	27	0	4	96	48	6
TAP	27	72	3
TAP	27	96	4
TAP	27	144	0
XTP	27	192	6
XTP	27	192	7
TAP	27	288	1
TAP	27	336	2
TAP	28	0	3
TAP	28	0	4
TAP	28	48	5
HLD	28	72	4	72
TAP	28	144	5
TAP	28	192	5
TAP	28	240	6
TAP	28	288	7
TAP	28	336	0
TAP	29	0	1
TAP	29	48	2
TAP	29	96	3
TAP	29	144	4
TAP	29	192	1
TAP	29	192	5
TAP	29	288	5
TAP	29	336	4
STR	30	0	3
SCL	30	0	3	96	48	1
TAP	30	72	4
TAP	30	96	3
TAP	30	144	5
STR	30	192	5
SCR	30	192	5	96	48	7
TAP	30	264	4
TAP	30	288	5
TAP	30	336	2
STR	31	0	2
SCL	31	0	2	96	48	0
TAP	31	72	3
TAP	31	96	2
TAP	31	144	4
STR	31	192	4
SI_	31	192	4	96	48	7
TAP	31	288	3
XTP	32	0	0
XTP	32	0	7
TAP	32	48	1
HLD	32	72	0	72
TAP	32	144	1
TAP	32	192	1
TAP	32	240	2
TAP	32	288	3
TAP	32	336	4
XTP	33	0	5
XTP	33	96	3
XTP	33	96	6
TAP	33	144	3
TAP	33	144	6
TAP	33	192	4
TAP	33	216	5
TAP	33	240	3
TAP	33	264	6
BRK	33	288	1
XHO	34	0	2	672
XTP	34	0	4
TAP	34	48	3
TAP	34	144	3
TAP	34	240	3
TAP	34	336	3
TAP	35	48	1
TAP	35	144	1
TAP	35	240	1
XTP	35	288	1
XTP	36	0	3
XHO	36	0	5	576
TAP	36	48	4
TAP	36	144	4
TAP	36	240	4
TAP	36	336	4
TAP	37	48	6
TAP	37	144	6
XTP	37	192	6
XTP	37	288	3
XTP	37	288	5
XTP	38	0	4
TAP	38	48	2
TAP	38	96	1
TAP	38	96	3
TAP	38	144	2
TAP	38	240	5
TAP	38	288	4
TAP	38	288	6
TAP	38	336	5
TAP	39	48	3
TAP	39	96	4
TAP	39	144	5
STR	39	192	6
SI_	39	192	6	96	48	3
TAP	39	240	3
TAP	39	288	2
XTP	40	0	1
TAP	40	48	2
TAP	40	48	4
TAP	40	96	1
TAP	40	96	5
TAP	40	144	2
TAP	40	144	4
TAP	40	240	3
TAP	40	240	5
TAP	40	288	2
TAP	40	288	6
TAP	40	336	3
TAP	40	336	5
TAP	41	48	4
TAP	41	96	3
TAP	41	144	2
TAP	41	192	1
TAP	41	192	5
TAP	41	240	2
TAP	41	240	4
BRK	41	288	0
BRK	41	288	6
STR	42	0	1
SI_	42	0	1	96	48	5
HLD	42	0	7	96
TAP	42	96	1
TAP	42	144	7
STR	42	192	4
SI_	42	192	4	96	48	0
TAP	42	192	6
TAP	42	264	5
TAP	42	288	4
TAP	42	336	6
STR	43	0	1
SI_	43	0	1	96	48	4
TAP	43	0	7
TAP	43	72	0
TAP	43	96	1
TAP	43	144	6
XTP	43	192	3
XTP	43	192	7
TAP	43	288	7
TAP	43	336	6
TAP	44	0	3
HLD	44	0	5	72
HLD	44	72	3	72
TAP	44	144	1
HLD	44	192	1	72
HLD	44	264	7	72
TAP	44	336	6
TAP	45	0	6
TAP	45	0	7
STR	45	96	1
SI_	45	96	1	96	48	4
STR	45	96	7
SI_	45	96	7	96	48	4
TAP	45	144	0
TAP	45	192	1
TAP	45	192	7
BRK	45	288	2
BRK	45	288	6
XHO	46	0	0	96
XST	46	0	6
SI_	46	0	6	96	48	2
TAP	46	96	6
TAP	46	144	0
TAP	46	192	1
STR	46	192	3
SI_	46	192	3	96	48	7
TAP	46	264	2
TAP	46	288	3
TAP	46	336	1
TAP	47	0	0
STR	47	0	6
SI_	47	0	6	96	48	3
TAP	47	72	7
TAP	47	96	6
TAP	47	144	1
XTP	47	192	0
XTP	47	192	4
TAP	47	288	0
TAP	47	336	1
STR	48	0	2
SI_	48	0	2	96	48	7
TAP	48	72	3
TAP	48	96	2
TAP	48	144	6
STR	48	192	6
SI_	48	192	6	96	48	3
TAP	48	264	7
TAP	48	288	6
TAP	48	336	2
XTP	49	0	4
XTP	49	0	5
TAP	49	48	6
XTP	49	96	0
XTP	49	96	7
TAP	49	144	1
XST	49	192	2
SI_	49	192	2	96	48	7
XST	49	192	3
SI_	49	192	3	96	48	6
BRK	49	288	2
BRK	49	288	3
XHO	50	0	0	288
XHO	50	0	5	672
HLD	51	0	6	576
HLD	52	0	3	288
HLD	52	288	2	384
THO	53	0	0	288	C	0	M1
HLD	54	0	0	48
HLD	54	0	1	48
HLD	54	96	1	48
HLD	54	96	2	48
HLD	54	192	2	48
HLD	54	192	3	48
HLD	54	288	3	48
HLD	54	288	4	48
HLD	55	0	4	48
HLD	55	0	5	48
HLD	55	96	5	48
HLD	55	96	6	48
HLD	55	192	6	48
HLD	55	192	7	48
HLD	55	288	0	48
HLD	55	288	7	48
HLD	56	0	2	48
HLD	56	0	3	48
HLD	56	96	4	48
HLD	56	96	5	48
HLD	56	192	6	48
HLD	56	192	7	48
HLD	56	288	0	48
HLD	56	288	1	48
XTP	57	0	3
XTP	57	0	4
TAP	57	96	1
TAP	57	96	6
TAP	57	144	1
TAP	57	144	6
TAP	57	192	0
TAP	57	216	7
TAP	57	240	1
TAP	57	264	6
TAP	57	288	2
TAP	57	312	5
TAP	57	336	3
XTP	58	0	3
XTP	58	0	4
TAP	58	48	2
TAP	58	96	2
TAP	58	144	5
TAP	58	168	4
TAP	58	216	4
TAP	58	216	5
TAP	58	264	2
TAP	58	288	3
TAP	58	336	2
TAP	58	336	3
HLD	59	0	0	48
HLD	59	0	1	48
TAP	59	72	0
TAP	59	72	1
TAP	59	120	6
TAP	59	120	7
TAP	59	168	4
TAP	59	168	5
TAP	59	216	2
TAP	59	240	3
TAP	59	264	2
TAP	59	288	4
TAP	59	312	3
TAP	59	336	4
XTP	60	0	3
XTP	60	0	4
TAP	60	48	5
TAP	60	96	5
TAP	60	144	2
TAP	60	168	3
TAP	60	216	2
TAP	60	216	3
TAP	60	264	1
TAP	60	288	0
TAP	60	336	0
TAP	60	336	1
HLD	61	0	6	48
HLD	61	0	7	48
TAP	61	72	6
TAP	61	72	7
TAP	61	120	4
TAP	61	120	5
TAP	61	168	2
TAP	61	168	3
TAP	61	216	1
TAP	61	240	0
TAP	61	264	1
TAP	61	288	7
TAP	61	312	0
TAP	61	336	7
XTP	62	0	6
XTP	62	0	7
TAP	62	48	5
TAP	62	96	5
TAP	62	144	2
TAP	62	168	3
TAP	62	216	3
TAP	62	240	2
TAP	62	288	0
TAP	62	288	1
TAP	62	336	7
HLD	63	0	0	96
TAP	63	0	7
XTP	63	48	6
XTP	63	64	5
XTP	63	80	4
XTP	63	96	3
TAP	63	144	1
TAP	63	192	3
TAP	63	216	2
TAP	63	240	3
TAP	63	288	0
TAP	63	288	1
TAP	64	0	6
TAP	64	0	7
TAP	64	48	5
TAP	64	72	4
TAP	64	120	4
TAP	64	144	5
TAP	64	192	2
TAP	64	216	3
TAP	64	264	3
TAP	64	288	2
TAP	64	336	0
TAP	64	336	1
XST	65	0	0
SI_	65	0	0	96	48	3
XST	65	0	7
SI_	65	0	7	96	48	4
BRK	65	96	0
BRK	65	96	7
XTP	65	192	3
TAP	65	216	4
TAP	65	240	2
TAP	65	264	5
TAP	65	288	1
TAP	65	312	6
TAP	65	336	0
XST	66	0	6
SI_	66	0	6	96	48	3
XTP	66	0	7
TAP	66	96	6
TAP	66	96	7
TAP	66	144	0
XTP	66	192	1
XST	66	192	3
SI_	66	192	3	96	48	7
TAP	66	264	2
TAP	66	288	3
TAP	66	336	1
XTP	67	0	2
XST	67	0	7
SI_	67	0	7	96	48	4
TAP	67	72	0
TAP	67	96	7
TAP	67	144	2
XTP	67	192	0
XTP	67	192	5
TAP	67	288	7
TAP	67	336	6
TAP	68	0	3
HLD	68	0	5	72
HLD	68	72	3	72
TAP	68	144	1
HLD	68	192	1	72
HLD	68	264	7	72
TAP	68	336	6
TAP	69	0	6
TAP	69	0	7
STR	69	96	0
SI_	69	96	0	96	48	3
STR	69	96	6
SI_	69	96	6	96	48	3
TAP	69	144	7
TAP	69	192	0
TAP	69	192	6
BRK	69	288	1
BRK	69	288	5
HLD	70	0	0	96
STR	70	0	1
SI_	70	0	1	96	48	4
TAP	70	96	1
TAP	70	144	7
XST	70	192	4
SI_	70	192	4	96	48	0
XTP	70	192	6
TAP	70	264	5
TAP	70	288	4
TAP	70	336	6
XST	71	0	0
SI_	71	0	0	96	48	3
XTP	71	0	5
TAP	71	72	7
TAP	71	96	0
TAP	71	144	5
XTP	71	192	2
XTP	71	192	6
TAP	71	288	5
TAP	71	336	6
STR	72	0	1
SCR	72	0	1	96	48	4
TAP	72	0	7
TAP	72	72	0
TAP	72	96	1
TAP	72	144	5
STR	72	192	5
SCR	72	192	5	96	48	0
TAP	72	264	4
TAP	72	288	5
TAP	72	336	2
XTP	73	0	0
XTP	73	0	1
TAP	73	48	2
XTP	73	96	3
XTP	73	96	4
TAP	73	144	5
XTP	73	192	6
XTP	73	192	7
TAP	73	240	0
TAP	73	240	5
BRK	73	288	1
BRK	73	288	4
STR	74	0	6
SI_	74	0	6	96	48	2
HLD	74	0	7	96
TAP	74	96	6
TAP	74	144	0
TAP	74	192	1
STR	74	192	3
SI_	74	192	3	96	48	7
TAP	74	264	2
TAP	74	288	3
TAP	74	336	4
STR	75	0	0
SI_	75	0	0	96	48	5
TAP	75	0	2
TAP	75	72	1
TAP	75	96	0
TAP	75	144	3
XTP	75	192	1
XTP	75	192	7
TAP	75	288	5
TAP	75	336	4
HLD	76	0	1	72
TAP	76	0	3
HLD	76	72	3	72
TAP	76	144	5
HLD	76	192	5	72
HLD	76	264	7	72
TAP	76	336	1
TAP	77	0	1
TAP	77	0	7
STR	77	96	3
SI_	77	96	3	96	48	0
STR	77	96	5
SI_	77	96	5	96	48	0
TAP	77	144	4
TAP	77	192	3
TAP	77	192	5
BRK	77	288	2
BRK	77	288	6
HLD	78	0	0	96
STR	78	0	1
SI_	78	0	1	96	48	5
TAP	78	96	1
TAP	78	144	7
STR	78	192	4
SI_	78	192	4	96	48	0
TAP	78	192	6
TAP	78	264	5
TAP	78	288	4
TAP	78	336	3
TAP	79	0	5
STR	79	0	7
SI_	79	0	7	96	48	2
TAP	79	72	6
TAP	79	96	7
TAP	79	144	3
XTP	79	192	0
XTP	79	192	5
TAP	79	288	1
TAP	79	336	2
TAP	80	0	3
STR	80	0	5
SCR	80	0	5	96	48	0
TAP	80	72	4
TAP	80	96	5
TAP	80	144	1
STR	80	192	1
SCR	80	192	1	96	48	4
TAP	80	264	0
TAP	80	288	1
TAP	80	336	5
XTP	81	0	4
XTP	81	0	6
TAP	81	48	5
XTP	81	96	1
XTP	81	96	3
TAP	81	144	2
XTP	81	192	4
XST	81	192	7
SF_	81	192	7	96	48	3
XTP	81	288	7
BRK	82	0	1
BRK	82	0	5

T_REC_TAP	426
T_REC_BRK	19
T_REC_XTP	80
T_REC_HLD	70
T_REC_XHO	5
T_REC_STR	34
T_REC_BST	1
T_REC_XST	13
T_REC_TTP	49
T_REC_THO	2
T_REC_SLD	48
T_REC_ALL	747
T_NUM_TAP	602
T_NUM_BRK	20
T_NUM_HLD	77
T_NUM_SLD	48
T_NUM_ALL	747
T_JUDGE_TAP	622
T_JUDGE_HLD	248
T_JUDGE_SLD	48
T_JUDGE_ALL	918
TTM_EACHPAIRS	138
TTM_SCR_TAP	301000
TTM_SCR_BRK	52000
TTM_SCR_HLD	77000
TTM_SCR_SLD	72000
TTM_SCR_ALL	502000
TTM_SCR_S	485000
TTM_SCR_SS	500000
TTM_RAT_ACV	10040

