VERSION	0.00.00	1.03.00
FES_MODE	0
BPM_DEF	 85.000	153.000	153.000	 49.000
MET_DEF	4	4
RESOLUTION	384
CLK_DEF	384
COMPATIBLE_CODE	MA2

BPM	0	0	 85.000
BPM	8	0	 80.000
BPM	8	48	 75.000
BPM	8	96	 70.000
BPM	8	144	 60.000
BPM	8	192	 49.000
BPM	9	0	153.000
MET	0	0	4	4

HLD	1	0	3	384
TAP	1	96	4
TAP	1	192	4
TAP	1	288	4
HLD	2	0	4	384
TAP	2	96	3
TAP	2	192	3
TAP	2	288	3
HLD	3	0	2	384
TAP	3	96	3
TAP	3	192	3
TAP	3	288	3
HLD	4	0	5	384
TAP	4	96	4
TAP	4	192	4
TAP	4	288	4
HLD	5	0	2	384
TAP	5	96	3
TAP	5	192	4
TAP	5	288	3
HLD	6	0	5	384
TAP	6	96	4
TAP	6	192	3
TAP	6	288	4
HLD	7	0	2	288
TAP	7	96	3
TAP	7	192	4
TAP	7	288	3
TTP	8	0	4	E	0	M1
TTP	8	96	3	B	0	M1
TTP	8	96	4	B	0	M1
THO	8	192	0	384	C	1	M1
TTP	8	192	2	B	0	M1
TTP	8	192	5	B	0	M1
XTP	10	0	0
XTP	10	0	7
TAP	10	96	1
TAP	10	192	0
TAP	10	192	7
TAP	10	288	6
TAP	11	0	6
TAP	11	0	7
TAP	11	96	6
TAP	11	96	7
TAP	11	192	5
TAP	11	240	5
TAP	11	288	4
TAP	12	0	0
TAP	12	0	7
TAP	12	96	6
TAP	12	192	0
TAP	12	192	7
TAP	12	288	1
TAP	13	0	0
TAP	13	0	1
TAP	13	96	0
TAP	13	96	1
TAP	13	192	2
TAP	13	240	2
TAP	13	288	3
TAP	14	0	5
TAP	14	48	5
TAP	14	96	4
TAP	14	192	3
TAP	14	192	6
TAP	14	288	3
TAP	14	288	6
TAP	15	0	2
TAP	15	48	2
TAP	15	96	3
TAP	15	192	1
TAP	15	192	4
TAP	15	288	1
TAP	15	288	4
HLD	16	0	2	72
HLD	16	0	4	72
HLD	16	144	3	72
HLD	16	144	5	72
STR	16	288	4
SI_	16	288	4	96	96	1
SI_	16	288	4	96	96	7
XTP	17	192	3
XTP	17	192	6
XTP	17	288	2
XTP	17	288	5
XHO	18	0	1	288
XTP	18	0	4
TAP	18	96	3
TAP	18	192	2
TAP	18	288	3
TAP	19	0	2
TAP	19	0	4
TAP	19	96	3
TAP	19	96	5
TAP	19	192	4
TAP	19	192	6
TAP	19	288	4
TAP	19	288	6
TAP	20	0	3
TAP	20	0	4
TAP	20	96	2
TAP	20	192	3
TAP	20	192	4
TAP	20	288	5
TAP	21	0	2
TAP	21	48	2
TAP	21	96	3
TAP	21	192	1
TAP	21	192	4
TAP	21	288	1
TAP	21	288	4
XTP	22	0	3
XHO	22	0	6	288
TAP	22	96	4
TAP	22	192	5
TAP	22	288	4
TAP	23	0	3
TAP	23	0	5
TAP	23	96	2
TAP	23	96	4
TAP	23	192	1
TAP	23	192	3
TAP	23	288	1
TAP	23	288	3
TAP	24	0	2
TAP	24	0	4
TAP	24	96	6
TAP	24	192	3
TAP	24	192	5
TAP	24	288	1
STR	24	336	1
SUL	24	336	1	96	144	3
XTP	25	288	2
XTP	25	288	5
XTP	26	0	4
XHO	26	0	6	288
TAP	26	96	5
TAP	26	192	7
TAP	26	288	0
TAP	27	0	1
TAP	27	0	7
TAP	27	96	0
TAP	27	96	6
TAP	27	192	1
TAP	27	192	7
TAP	27	288	1
TAP	27	288	7
TAP	28	0	2
TAP	28	0	3
TAP	28	96	1
TAP	28	192	4
TAP	28	192	5
TAP	28	288	6
TAP	29	0	3
TAP	29	48	3
TAP	29	96	4
TAP	29	192	2
TAP	29	192	5
TAP	29	288	2
TAP	29	288	5
XHO	30	0	1	288
XTP	30	0	3
TAP	30	96	2
TAP	30	192	0
TAP	30	288	7
TAP	31	0	0
TAP	31	0	6
TAP	31	96	1
TAP	31	96	7
TAP	31	192	0
TAP	31	192	6
TAP	31	288	0
TAP	31	288	6
TAP	32	0	4
TAP	32	0	5
TAP	32	96	6
TAP	32	192	2
TAP	32	192	3
TAP	32	288	1
STR	32	336	1
SUL	32	336	1	96	144	2
TAP	33	288	1
TAP	33	288	6
XHO	34	0	2	672
TTP	34	96	4	B	0	M1
TTP	34	288	0	C	0	M1
TTP	35	96	0	B	0	M1
XTP	35	288	6
XHO	36	0	5	672
TTP	36	96	3	B	0	M1
TTP	36	288	0	C	0	M1
TTP	37	96	7	B	0	M1
XTP	37	288	1
XTP	38	0	3
XHO	38	0	6	192
TAP	38	96	4
HLD	38	192	1	192
TAP	38	288	3
HLD	39	0	6	384
TAP	39	96	5
TAP	39	192	5
TAP	39	288	5
XHO	40	0	1	192
TAP	40	96	3
HLD	40	192	6	192
TAP	40	288	4
TAP	41	0	2
TAP	41	96	1
TAP	41	96	5
TAP	41	192	0
TAP	41	192	6
TAP	41	240	0
TAP	41	240	6
TAP	41	288	0
TAP	41	288	6
XST	42	0	1
SI_	42	0	1	96	48	5
TAP	42	144	6
HLD	42	192	6	72
TAP	42	264	7
TAP	42	336	0
TAP	42	336	5
HLD	43	0	1	72
TAP	43	72	0
TAP	43	144	2
TAP	43	144	7
TAP	43	192	2
TAP	43	192	7
TAP	43	288	0
TAP	43	288	1
HLD	44	0	6	72
TAP	44	0	7
HLD	44	72	5	72
TAP	44	144	4
HLD	44	192	3	72
HLD	44	264	2	72
TAP	44	336	1
STR	45	0	0
SCL	45	0	0	96	96	4
BRK	45	288	6
BRK	45	288	7
XST	46	0	1
SI_	46	0	1	96	48	5
TAP	46	144	6
HLD	46	192	6	72
TAP	46	264	7
TAP	46	336	0
TAP	46	336	5
HLD	47	0	1	72
TAP	47	72	0
TAP	47	144	2
TAP	47	144	7
TAP	47	192	2
TAP	47	192	7
TAP	47	288	0
TAP	47	288	1
HLD	48	0	6	72
TAP	48	0	7
HLD	48	72	5	72
TAP	48	144	4
HLD	48	192	3	72
HLD	48	264	2	72
TAP	48	336	1
STR	49	0	0
SCL	49	0	0	96	96	5
SCR	49	0	0	96	96	3
BRK	49	288	1
BRK	49	288	7
HLD	50	0	2	288
HLD	50	0	6	288
HLD	51	0	1	288
HLD	51	0	5	288
HLD	52	0	2	288
HLD	52	0	4	288
HLD	53	0	3	288
HLD	53	0	5	288
XHO	54	0	1	288
TTP	54	96	0	B	0	M1
TTP	54	192	0	C	0	M1
TTP	54	288	4	B	0	M1
XHO	55	0	6	288
TTP	55	96	7	B	0	M1
TTP	55	192	0	C	0	M1
TTP	55	288	3	B	0	M1
XHO	56	0	1	288
TTP	56	96	0	B	0	M1
TTP	56	192	0	C	0	M1
TTP	56	288	4	B	0	M1
XST	57	0	6
SF_	57	0	6	96	144	2
XTP	58	0	0
XTP	58	0	5
TAP	58	96	1
TAP	58	192	2
TAP	58	192	7
TAP	58	288	6
TAP	59	0	0
TAP	59	0	5
TAP	59	96	0
TAP	59	96	5
TAP	59	192	1
TAP	59	240	1
TAP	59	288	0
TAP	60	0	2
TAP	60	0	7
TAP	60	96	6
TAP	60	192	0
TAP	60	192	5
TAP	60	288	1
TAP	61	0	2
TAP	61	0	7
TAP	61	96	2
TAP	61	96	7
TAP	61	192	6
TAP	61	240	6
TAP	61	288	7
TAP	62	0	5
TAP	62	48	5
TAP	62	96	4
TAP	62	192	3
TAP	62	192	6
TAP	62	288	3
TAP	62	288	6
TAP	63	0	2
TAP	63	48	2
TAP	63	96	3
TAP	63	192	1
TAP	63	192	4
TAP	63	288	1
TAP	63	288	4
HLD	64	0	3	72
HLD	64	0	5	72
HLD	64	144	2	72
HLD	64	144	4	72
STR	64	288	3
SI_	64	288	3	96	96	0
SI_	64	288	3	96	96	6
TAP	65	192	1
TAP	65	192	5
TAP	65	288	3
TAP	65	288	4
XST	66	0	6
SI_	66	0	6	96	48	2
TAP	66	144	1
HLD	66	192	1	72
TAP	66	264	0
TAP	66	336	2
TAP	66	336	7
HLD	67	0	6	72
TAP	67	72	7
TAP	67	144	0
TAP	67	144	5
TAP	67	192	0
TAP	67	192	5
TAP	67	288	6
TAP	67	288	7
TAP	68	0	0
HLD	68	0	1	72
HLD	68	72	2	72
TAP	68	144	3
HLD	68	192	4	72
HLD	68	264	5	72
TAP	68	336	6
STR	69	0	7
SCR	69	0	7	96	96	3
BRK	69	288	0
BRK	69	288	1
XST	70	0	6
SI_	70	0	6	96	48	2
TAP	70	144	1
HLD	70	192	1	72
TAP	70	264	0
TAP	70	336	2
TAP	70	336	7
HLD	71	0	6	72
TAP	71	72	7
TAP	71	144	0
TAP	71	144	5
TAP	71	192	0
TAP	71	192	5
TAP	71	288	6
TAP	71	288	7
TAP	72	0	0
HLD	72	0	1	72
HLD	72	72	2	72
TAP	72	144	3
HLD	72	192	4	72
HLD	72	264	5	72
TAP	72	336	6
XST	73	0	7
SCL	73	0	7	96	96	4
SCR	73	0	7	96	96	2
BRK	73	288	0
BRK	73	288	6
XST	74	0	1
SI_	74	0	1	96	48	5
TAP	74	144	6
HLD	74	192	6	72
TAP	74	264	0
TAP	74	336	1
TAP	74	336	5
HLD	75	0	2	72
TAP	75	72	0
TAP	75	144	3
TAP	75	144	7
TAP	75	192	3
TAP	75	192	7
TAP	75	288	0
TAP	75	288	1
TAP	76	0	0
HLD	76	0	1	72
HLD	76	72	2	72
TAP	76	144	3
HLD	76	192	4	72
HLD	76	264	5	72
TAP	76	336	6
STR	77	0	7
SCR	77	0	7	96	96	3
BRK	77	288	0
BRK	77	288	1
XST	78	0	6
SI_	78	0	6	96	48	2
TAP	78	144	1
HLD	78	192	1	72
TAP	78	264	7
TAP	78	336	2
TAP	78	336	6
HLD	79	0	5	72
TAP	79	72	7
TAP	79	144	0
TAP	79	144	4
TAP	79	192	0
TAP	79	192	4
TAP	79	288	6
TAP	79	288	7
HLD	80	0	6	72
TAP	80	0	7
HLD	80	72	5	72
TAP	80	144	4
HLD	80	192	3	72
HLD	80	264	2	72
TAP	80	336	1
XST	81	0	0
SI_	81	0	0	96	48	4
XST	81	96	1
SI_	81	96	1	96	48	5
XST	81	192	6
SI_	81	192	6	96	48	2
XTP	81	288	3
BRK	82	0	1
BRK	82	0	7

T_REC_TAP	285
T_REC_BRK	12
T_REC_XTP	18
T_REC_HLD	62
T_REC_XHO	11
T_REC_STR	8
T_REC_BST	0
T_REC_XST	11
T_REC_TTP	20
T_REC_THO	1
T_REC_SLD	23
T_REC_ALL	451
T_NUM_TAP	342
T_NUM_BRK	12
T_NUM_HLD	74
T_NUM_SLD	23
T_NUM_ALL	451
T_JUDGE_TAP	354
T_JUDGE_HLD	358
T_JUDGE_SLD	23
T_JUDGE_ALL	735
TTM_EACHPAIRS	111
TTM_SCR_TAP	171000
TTM_SCR_BRK	31200
TTM_SCR_HLD	74000
TTM_SCR_SLD	34500
TTM_SCR_ALL	310700
TTM_SCR_S	300250
TTM_SCR_SS	309500
TTM_RAT_ACV	10038

