VERSION	0.00.00	1.03.00
FES_MODE	0
BPM_DEF	 85.000	153.000	153.000	 49.000
MET_DEF	4	4
RESOLUTION	384
CLK_DEF	384
COMPATIBLE_CODE	MA2

BPM	0	0	 85.000
BPM	8	0	 80.000
BPM	8	48	 75.000
BPM	8	96	 70.000
BPM	8	144	 60.000
BPM	8	192	 49.000
BPM	9	0	153.000
MET	0	0	4	4

TTP	1	0	4	E	0	L1
TTP	1	192	3	E	0	L1
TTP	2	0	2	E	0	L1
TTP	2	192	1	E	0	L1
TTP	3	0	0	E	0	L1
TTP	3	192	7	E	0	L1
TTP	4	0	6	E	0	L1
TTP	4	192	5	E	0	L1
TTP	5	0	4	E	0	L1
TTP	5	192	3	E	0	L1
TTP	5	192	5	E	0	L1
TTP	6	0	2	B	0	L1
TTP	6	0	5	B	0	L1
TTP	6	192	1	B	0	L1
TTP	6	192	6	B	0	L1
TTP	7	0	7	B	0	L1
TTP	7	0	7	E	0	L1
TTP	7	192	0	B	0	L1
TTP	7	192	1	E	0	L1
THO	8	0	0	384	C	0	L1
TAP	10	0	6
TAP	10	96	6
TAP	10	192	7
TAP	10	288	7
TAP	11	0	0
TAP	11	96	0
TAP	11	192	1
TAP	11	192	7
TAP	12	0	1
TAP	12	96	1
TAP	12	192	0
TAP	12	288	0
TAP	13	0	7
TAP	13	96	7
TAP	13	192	0
TAP	13	192	6
TAP	14	0	5
TAP	14	96	5
TAP	14	192	4
TAP	14	288	4
TAP	15	0	3
TAP	15	96	3
TAP	15	192	2
TAP	15	192	4
TAP	16	0	1
TAP	16	96	1
TAP	16	192	0
TAP	16	288	0
TAP	16	288	7
BRK	17	0	1
BRK	17	0	6
HLD	18	0	5	192
TAP	18	192	4
HLD	19	0	2	192
TAP	19	192	3
HLD	20	0	5	192
TAP	20	192	4
HLD	21	0	2	96
HLD	21	0	3	96
TAP	21	192	2
TAP	21	192	3
HLD	22	0	1	192
TAP	22	192	0
HLD	23	0	6	192
TAP	23	192	7
HLD	24	0	1	192
TAP	24	192	0
HLD	25	0	0	96
HLD	25	0	7	96
TAP	25	192	0
TAP	25	192	7
TAP	26	0	6
TAP	26	96	6
TAP	26	192	6
TAP	26	192	7
TAP	27	0	1
TAP	27	96	1
TAP	27	192	0
TAP	27	192	1
TAP	28	0	6
TAP	28	96	6
TAP	28	192	6
TAP	28	192	7
TAP	29	0	1
TAP	29	96	1
TAP	29	192	0
TAP	29	192	6
TAP	30	0	5
TAP	30	96	5
TAP	30	192	4
TAP	30	192	5
TAP	31	0	2
TAP	31	96	2
TAP	31	192	2
TAP	31	192	3
TAP	32	0	5
TAP	32	96	5
TAP	32	192	4
TAP	32	192	5
TAP	33	0	3
TAP	33	0	4
TAP	33	96	3
TAP	33	96	4
TAP	33	192	2
TAP	33	192	5
XST	34	0	6
SUL	34	0	6	96	144	2
STR	35	0	1
SUR	35	0	1	96	144	5
XST	36	0	6
SUL	36	0	6	96	144	2
TAP	37	0	1
TAP	37	96	1
TAP	37	192	0
TAP	37	192	7
TTP	38	0	2	E	0	L1
TTP	38	96	2	B	0	L1
TTP	38	192	3	B	0	L1
TTP	39	0	6	E	0	L1
TTP	39	96	5	B	0	L1
TTP	39	192	4	B	0	L1
TTP	40	0	2	E	0	L1
TTP	40	96	2	B	0	L1
TTP	40	192	3	B	0	L1
TTP	41	0	0	C	1	L1
BRK	42	0	6
TAP	42	96	6
TAP	42	192	6
TAP	42	192	7
TAP	42	288	6
TAP	42	288	7
TAP	43	0	1
TAP	43	96	1
TAP	43	192	0
TAP	43	192	1
TAP	43	288	0
TAP	43	288	1
TAP	44	0	2
TAP	44	96	2
TAP	44	192	3
TAP	44	288	3
TAP	45	0	4
TAP	45	96	4
TAP	45	192	3
TAP	45	192	5
BRK	46	0	2
TAP	46	96	2
TAP	46	192	2
TAP	46	192	3
TAP	46	288	2
TAP	46	288	3
TAP	47	0	5
TAP	47	96	5
TAP	47	192	4
TAP	47	192	5
TAP	47	288	4
TAP	47	288	5
TAP	48	0	6
TAP	48	96	6
TAP	48	192	7
TAP	48	288	7
TAP	49	0	0
TAP	49	96	0
TAP	49	96	7
TAP	49	192	1
TAP	49	192	6
XHO	50	0	5	384
HLD	51	0	4	384
HLD	52	0	3	384
TAP	53	0	2
TTP	54	0	1	B	0	L1
TTP	54	96	2	B	0	L1
TTP	54	192	3	E	0	L1
TTP	55	0	6	B	0	L1
TTP	55	96	5	B	0	L1
TTP	55	192	5	E	0	L1
TTP	56	0	1	B	0	L1
TTP	56	96	2	B	0	L1
TTP	56	192	3	B	0	L1
TTP	56	288	4	B	0	L1
TTP	57	0	5	B	0	L1
TTP	57	96	6	B	0	L1
TTP	57	192	7	E	0	L1
XTP	58	0	6
XTP	58	96	6
TAP	58	192	6
TAP	58	192	7
TAP	59	0	1
TAP	59	96	1
TAP	59	192	0
TAP	59	192	1
TAP	60	0	6
TAP	60	96	6
TAP	60	192	6
TAP	60	192	7
TAP	61	0	0
TAP	61	96	0
TAP	61	192	1
TAP	61	192	7
TAP	62	0	2
TAP	62	96	2
TAP	62	192	2
TAP	62	192	3
TAP	63	0	5
TAP	63	96	5
TAP	63	192	4
TAP	63	192	5
TAP	64	0	2
TAP	64	96	2
TAP	64	192	1
TAP	64	288	1
BRK	65	0	0
BRK	65	0	7
BRK	66	0	6
TAP	66	96	6
TAP	66	96	7
TAP	66	192	6
TAP	66	288	6
TAP	66	288	7
TAP	67	0	1
TAP	67	96	0
TAP	67	96	1
TAP	67	192	1
TAP	67	288	0
TAP	67	288	1
TAP	68	0	2
TAP	68	96	2
TAP	68	192	3
TAP	68	288	3
TAP	69	0	4
TAP	69	96	4
TAP	69	192	3
TAP	69	192	5
BRK	70	0	2
TAP	70	96	2
TAP	70	96	3
TAP	70	192	2
TAP	70	288	2
TAP	70	288	3
TAP	71	0	5
TAP	71	96	4
TAP	71	96	5
TAP	71	192	5
TAP	71	288	4
TAP	71	288	5
TAP	72	0	6
TAP	72	96	6
TAP	72	192	7
TAP	72	288	7
TAP	73	0	0
TAP	73	96	0
TAP	73	192	1
TAP	73	192	6
BRK	74	0	1
TAP	74	96	0
TAP	74	96	1
TAP	74	192	1
TAP	74	288	0
TAP	74	288	1
TAP	75	0	6
TAP	75	96	6
TAP	75	96	7
TAP	75	192	6
TAP	75	288	6
TAP	75	288	7
TAP	76	0	5
TAP	76	96	5
TAP	76	192	4
TAP	76	288	4
TAP	77	0	3
TAP	77	96	3
TAP	77	192	2
TAP	77	192	4
BRK	78	0	5
TAP	78	96	4
TAP	78	96	5
TAP	78	192	5
TAP	78	288	4
TAP	78	288	5
TAP	79	0	2
TAP	79	96	2
TAP	79	96	3
TAP	79	192	2
TAP	79	288	2
TAP	79	288	3
TAP	80	0	1
TAP	80	96	1
TAP	80	192	0
TAP	80	192	7
TAP	80	288	0
TAP	80	288	7
TAP	81	0	1
TAP	81	0	6
TAP	81	96	1
TAP	81	96	6
TAP	81	192	2
TAP	81	192	5
TAP	81	288	2
TAP	81	288	5
BRK	82	0	3
BRK	82	0	4

T_REC_TAP	225
T_REC_BRK	12
T_REC_XTP	2
T_REC_HLD	12
T_REC_XHO	1
T_REC_STR	1
T_REC_BST	0
T_REC_XST	2
T_REC_TTP	42
T_REC_THO	1
T_REC_SLD	3
T_REC_ALL	301
T_NUM_TAP	272
T_NUM_BRK	12
T_NUM_HLD	14
T_NUM_SLD	3
T_NUM_ALL	301
T_JUDGE_TAP	284
T_JUDGE_HLD	80
T_JUDGE_SLD	3
T_JUDGE_ALL	367
TTM_EACHPAIRS	64
TTM_SCR_TAP	136000
TTM_SCR_BRK	31200
TTM_SCR_HLD	14000
TTM_SCR_SLD	4500
TTM_SCR_ALL	185700
TTM_SCR_S	179000
TTM_SCR_SS	184500
TTM_RAT_ACV	10065

