VERSION	0.00.00	1.03.00
FES_MODE	0
BPM_DEF	 85.000	153.000	153.000	 49.000
MET_DEF	4	4
RESOLUTION	384
CLK_DEF	384
COMPATIBLE_CODE	MA2

BPM	0	0	 85.000
BPM	8	0	 80.000
BPM	8	48	 75.000
BPM	8	96	 70.000
BPM	8	144	 60.000
BPM	8	192	 49.000
BPM	9	0	153.000
MET	0	0	4	4

TAP	1	0	0
TAP	1	192	0
TAP	2	0	0
TAP	3	0	7
TAP	3	192	7
TAP	4	0	7
TAP	5	0	0
TAP	5	192	0
TAP	6	0	0
TAP	6	192	0
TAP	7	0	7
TAP	7	192	7
XHO	8	0	0	192
XHO	8	0	7	192
XTP	10	0	0
TAP	10	192	0
TAP	11	0	1
TAP	12	0	2
TAP	12	192	2
TAP	13	0	3
TAP	14	0	4
TAP	14	192	4
TAP	15	0	5
TAP	16	0	6
TAP	16	192	6
XTP	17	0	0
XTP	17	0	7
TAP	18	0	7
TAP	18	192	7
TAP	19	0	7
TAP	20	0	6
TAP	20	192	6
TAP	21	0	6
TAP	22	0	5
TAP	22	192	5
TAP	23	0	5
TAP	24	0	4
TAP	24	192	4
TAP	25	0	3
TAP	25	0	4
TAP	26	0	3
TAP	26	192	3
TAP	27	0	3
TAP	27	192	3
TAP	28	0	2
TAP	28	192	2
TAP	29	0	2
TAP	30	0	1
TAP	30	192	1
TAP	31	0	1
TAP	31	192	1
TAP	32	0	0
TAP	32	192	0
XTP	33	0	0
STR	34	0	0
SI_	34	0	0	96	288	3
STR	36	0	7
SI_	36	0	7	96	288	4
STR	38	0	3
SI_	38	0	3	96	288	0
TAP	40	0	7
TAP	40	192	7
TAP	41	0	0
TAP	41	0	7
BRK	42	0	7
TAP	42	192	7
TAP	43	0	6
TAP	43	192	6
TAP	44	0	5
TAP	44	192	5
TAP	45	0	3
TAP	45	0	4
TAP	46	0	3
TAP	46	192	3
TAP	47	0	2
TAP	47	192	2
TAP	48	0	1
TAP	48	192	1
XTP	49	0	0
XTP	49	0	7
TTP	50	0	0	B	0	L1
TTP	51	0	7	B	0	L1
TTP	52	0	1	B	0	L1
TTP	53	0	6	B	0	L1
TTP	54	0	2	B	0	L1
TTP	55	0	5	B	0	L1
TTP	56	0	3	B	0	L1
TTP	57	0	0	C	0	L1
HLD	58	0	0	384
HLD	58	0	1	384
HLD	60	0	2	384
HLD	60	0	3	384
HLD	62	0	4	384
HLD	62	0	5	384
TAP	64	0	6
TAP	64	192	6
XTP	65	0	6
XTP	65	0	7
TAP	66	0	7
TAP	66	96	7
TAP	66	192	7
TAP	67	0	6
TAP	67	192	6
TAP	68	0	5
TAP	68	96	5
TAP	68	192	5
TAP	69	0	4
TAP	69	192	3
TAP	69	192	4
TAP	70	0	3
TAP	70	96	3
TAP	70	192	3
TAP	71	0	2
TAP	71	192	2
TAP	72	0	1
TAP	72	96	1
TAP	72	192	1
TAP	73	0	0
TAP	73	192	0
TAP	73	192	7
TAP	74	0	1
TAP	74	96	1
TAP	74	192	1
TAP	75	0	2
TAP	75	96	2
TAP	75	192	2
TAP	76	0	3
TAP	76	96	3
TAP	76	192	3
TAP	77	0	2
TAP	77	0	4
TAP	77	96	2
TAP	77	96	4
TAP	77	192	2
TAP	77	192	4
TAP	78	0	5
TAP	78	96	5
TAP	78	192	5
TAP	79	0	6
TAP	79	96	6
TAP	79	192	6
TAP	80	0	7
TAP	80	96	7
TAP	80	192	7
TAP	80	288	7
TAP	81	0	0
TAP	81	96	0
TAP	81	192	0
TAP	81	192	7
BRK	82	0	1
BRK	82	0	6

T_REC_TAP	118
T_REC_BRK	3
T_REC_XTP	8
T_REC_HLD	6
T_REC_XHO	2
T_REC_STR	3
T_REC_BST	0
T_REC_XST	0
T_REC_TTP	8
T_REC_THO	0
T_REC_SLD	3
T_REC_ALL	151
T_NUM_TAP	137
T_NUM_BRK	3
T_NUM_HLD	8
T_NUM_SLD	3
T_NUM_ALL	151
T_JUDGE_TAP	140
T_JUDGE_HLD	64
T_JUDGE_SLD	3
T_JUDGE_ALL	207
TTM_EACHPAIRS	17
TTM_SCR_TAP	68500
TTM_SCR_BRK	7800
TTM_SCR_HLD	8000
TTM_SCR_SLD	4500
TTM_SCR_ALL	88800
TTM_SCR_S	85850
TTM_SCR_SS	88500
TTM_RAT_ACV	10033

