VERSION	0.00.00	1.03.00
FES_MODE	0
BPM_DEF	150.000	150.000	150.000	150.000
MET_DEF	4	4
RESOLUTION	384
CLK_DEF	384
COMPATIBLE_CODE	MA2

BPM	0	0	150.000
MET	0	0	4	4

THO	1	0	0	2112	C	0	M1
TAP	3	0	7
TAP	3	192	6
TAP	4	0	5
TAP	4	192	4
TAP	5	0	3
TAP	5	192	2
TAP	6	0	1
TAP	6	192	0
TAP	7	0	1
TAP	7	0	6
TAP	7	48	2
TAP	7	72	3
TAP	7	96	2
TAP	7	144	5
TAP	7	168	4
TAP	7	192	5
TAP	7	240	2
TAP	7	264	3
TAP	7	288	1
TAP	7	336	5
TAP	7	360	4
TAP	8	0	6
TAP	8	48	1
TAP	8	72	3
TAP	8	96	2
TAP	8	144	6
TAP	8	168	4
TAP	8	192	5
TAP	8	240	3
TAP	8	288	2
TAP	8	288	4
TAP	8	336	1
TAP	8	336	5
TAP	9	0	0
TAP	9	0	6
TAP	9	48	5
TAP	9	72	4
TAP	9	96	6
TAP	9	144	2
TAP	9	168	3
TAP	9	192	1
TAP	9	240	5
TAP	9	264	4
STR	9	288	6
SSL	9	288	6	96	120	2
STR	10	192	0
SI_	10	192	0	96	48	4
HLD	10	192	4	96
XTP	10	288	0
TAP	11	0	5
TAP	11	48	5
STR	11	96	4
SI_	11	96	4	96	48	2
TAP	11	96	6
TAP	11	144	5
TAP	11	192	7
TAP	11	240	6
HLD	11	288	0	96
TAP	11	288	5
STR	12	0	2
SI_	12	0	2	96	48	4
TAP	12	96	1
HLD	12	144	1	96
TAP	12	240	5
TAP	12	288	3
TAP	12	288	6
TAP	12	336	7
TAP	13	0	2
TAP	13	48	2
TAP	13	96	1
STR	13	96	3
SI_	13	96	3	96	48	5
TAP	13	144	2
TAP	13	192	0
TAP	13	240	0
STR	13	288	7
SLL	13	288	7	96	96	3
TAP	13	336	2
XST	14	0	3
SV_	14	0	3	96	96	5
TAP	14	48	2
TAP	14	96	1
TAP	14	144	1
TAP	14	240	2
TAP	14	288	3
TAP	14	288	4
TAP	14	336	5
STR	15	0	6
SI_	15	0	6	96	48	4
TAP	15	48	3
TAP	15	96	2
TAP	15	144	1
STR	15	192	0
SI_	15	192	0	96	48	2
TAP	15	192	3
TAP	15	240	4
TAP	15	288	5
TAP	15	336	6
HLD	16	0	3	96
STR	16	0	7
SI_	16	0	7	96	48	3
TAP	16	144	2
TAP	16	192	1
TAP	16	240	0
TAP	16	288	7
TAP	16	336	6
BRK	17	0	2
TAP	17	48	1
TAP	17	48	3
XTP	17	96	5
TAP	17	144	4
TAP	17	144	6
TAP	17	192	2
TAP	17	240	1
TAP	17	240	3
TAP	17	288	0
TAP	17	336	7
TTP	18	0	0	C	1	M1
XTP	18	0	6
XTP	18	96	0
XST	18	96	5
SUL	18	96	5	96	120	3
HLD	18	144	0	144
TAP	18	144	5
TAP	19	0	2
TAP	19	48	2
TAP	19	96	1
STR	19	96	3
SCR	19	96	3	96	48	6
TAP	19	144	0
TAP	19	192	1
TAP	19	240	2
TAP	19	288	3
STR	19	288	7
SUL	19	288	7	96	48	3
SUR	19	288	7	96	48	3
XTP	20	96	2
XTP	20	96	4
XST	20	144	2
SI_	20	144	2	96	48	0
XTP	20	144	4
TAP	20	240	5
TAP	20	288	4
TAP	20	336	3
HLD	21	0	0	96
TAP	21	48	2
TAP	21	96	3
TAP	21	144	4
TAP	21	192	3
TAP	21	192	5
TAP	21	240	2
HLD	21	240	6	96
STR	21	336	4
SI_	21	336	4	96	96	0
TAP	22	0	7
TAP	22	48	6
TAP	22	96	5
STR	22	144	4
SI_	22	144	4	96	96	0
TAP	22	240	2
TAP	22	288	2
STR	23	0	3
SLL	23	0	3	96	96	7
STR	23	96	7
SCR	23	96	7	96	96	3
TAP	23	144	6
TAP	23	192	5
TAP	23	240	4
HLD	23	288	5	96
TTP	24	0	0	C	1	M1
TAP	24	96	0
TAP	24	144	0
TAP	24	192	1
TAP	24	192	7
TAP	24	240	2
TAP	24	240	6
STR	24	288	3
SI_	24	288	3	96	48	1
TAP	24	288	5
TAP	24	336	4
STR	25	0	5
SI_	25	0	5	96	48	7
TAP	25	48	5
STR	25	96	3
SI_	25	96	3	96	48	0
STR	25	192	4
SI_	25	192	4	96	48	6
TAP	25	240	4
STR	25	288	2
SI_	25	288	2	96	48	0
SI_	25	288	2	96	48	4
TAP	25	336	2
XTP	26	96	0
XTP	26	96	4
XTP	26	144	0
XTP	26	144	4
TAP	26	240	3
TAP	26	240	5
BRK	26	288	1
BRK	26	288	7
HLD	27	0	5	96
HLD	27	96	4	96
HLD	27	192	6	96
HLD	27	288	4	96
HLD	28	0	6	96
HLD	28	96	5	96
HLD	28	192	4	96
HLD	28	288	5	96
HLD	29	0	7	96
HLD	29	96	6	96
HLD	29	192	5	96
HLD	29	288	4	96
HLD	30	0	6	96
HLD	30	96	5	96
TAP	30	192	4
TAP	30	288	2
TAP	30	288	3
TAP	30	336	2
TAP	30	336	3
HLD	31	0	2	48
HLD	31	0	3	48
HLD	31	96	2	48
HLD	31	96	3	48
HLD	31	192	1	48
HLD	31	192	3	48
HLD	31	288	2	48
HLD	31	288	3	48
HLD	32	0	2	48
HLD	32	0	3	48
HLD	32	96	0	48
HLD	32	96	3	48
HLD	32	192	2	48
HLD	32	192	3	48
HLD	32	288	1	48
HLD	32	288	3	48
HLD	33	0	2	48
HLD	33	0	3	48
HLD	33	96	1	48
HLD	33	96	2	48
HLD	33	192	2	48
HLD	33	192	3	48
TAP	33	288	2
STR	33	288	3
SCL	33	288	3	96	288	4
SUR	33	288	3	96	288	4
XTP	34	0	3
TAP	35	0	3
TAP	35	0	5
TAP	35	48	2
TAP	35	48	4
TAP	35	96	3
TAP	35	96	5
TAP	35	144	2
TAP	35	144	4
STR	35	192	1
SI_	35	192	1	96	48	5
TAP	35	192	5
TAP	35	240	2
TAP	35	240	6
BRK	35	288	1
TAP	35	288	5
STR	36	0	7
SI_	36	0	7	96	48	3
TAP	36	48	0
TAP	36	48	6
TAP	36	96	7
STR	36	192	2
SI_	36	192	2	96	48	4
TAP	36	240	2
STR	36	288	7
SI_	36	288	7	96	48	2
TAP	36	336	7
TAP	37	0	5
TAP	37	48	4
STR	37	96	3
SCL	37	96	3	96	48	0
SCR	37	96	3	96	48	6
TAP	37	192	3
XTP	37	288	1
XTP	37	288	5
TAP	37	336	2
STR	38	0	6
SI_	38	0	6	96	48	2
TAP	38	48	3
TAP	38	96	2
TAP	38	144	1
STR	38	192	0
SI_	38	192	0	96	48	4
TAP	38	240	4
TAP	38	288	5
TAP	38	336	6
STR	39	0	1
SCR	39	0	1	96	48	4
STR	39	0	7
SCL	39	0	7	96	48	4
TAP	39	96	1
STR	39	96	7
SSR	39	96	7	96	96	3
XTP	39	192	4
XTP	39	288	2
TAP	39	336	1
STR	40	0	0
SI_	40	0	0	96	48	4
TAP	40	48	0
STR	40	96	6
SCR	40	96	6	96	48	1
STR	40	192	2
SI_	40	192	2	96	48	6
TAP	40	240	2
STR	40	288	4
SI_	40	288	4	96	48	0
TAP	40	336	4
TAP	41	0	1
TAP	41	48	2
STR	41	96	3
SCL	41	96	3	96	48	0
SCR	41	96	3	96	48	6
TAP	41	192	3
XTP	41	288	1
XTP	41	288	5
TAP	41	336	4
STR	42	0	3
SI_	42	0	3	96	48	1
TAP	42	48	2
STR	42	96	4
SI_	42	96	4	96	48	7
TAP	42	144	5
STR	42	192	3
SI_	42	192	3	96	48	0
TAP	42	240	2
STR	42	288	4
SI_	42	288	4	96	48	6
TAP	42	336	5
XST	43	0	0
SI_	43	0	0	96	48	4
STR	43	96	0
SV_	43	96	0	96	48	3
SV_	43	96	0	96	48	5
TAP	43	192	0
BRK	43	288	1
BRK	43	288	7
STR	44	0	0
SCR	44	0	0	96	96	4
TAP	44	0	4
TAP	44	96	5
TAP	44	144	6
STR	44	192	7
SCL	44	192	7	96	96	3
TAP	44	288	1
TAP	44	336	0
STR	45	0	7
SLR	45	0	7	96	96	3
TAP	45	96	5
TAP	45	144	6
STR	45	192	7
SI_	45	192	7	96	48	3
TAP	45	288	1
HLD	45	336	0	96
TAP	46	48	4
STR	46	96	1
SV_	46	96	1	96	48	4
STR	46	96	5
SV_	46	96	5	96	48	0
XTP	46	192	1
XTP	46	192	5
XTP	46	288	3
XTP	46	288	7
TAP	46	336	2
TAP	47	0	1
STR	47	0	5
SI_	47	0	5	96	48	0
TAP	47	48	0
STR	47	96	1
SCR	47	96	1	96	96	6
TAP	47	96	5
TAP	47	192	7
TTP	47	288	0	C	1	M1
STR	48	0	7
SXR	48	0	7	96	144	0
TAP	48	96	0
TAP	48	144	1
STR	48	192	2
SXR	48	192	2	96	144	3
TAP	48	288	7
TAP	48	336	6
STR	49	0	5
SXL	49	0	5	96	144	4
TAP	49	96	4
TAP	49	144	3
STR	49	192	2
SCL	49	192	2	96	48	7
TAP	49	288	3
HLD	49	336	4	96
TAP	50	48	0
STR	50	96	2
SI_	50	96	2	96	48	6
STR	50	96	6
SI_	50	96	6	96	48	2
TAP	50	192	2
TAP	50	192	6
XTP	50	288	0
STR	50	336	1
SLR	50	336	1	96	96	7
TAP	50	336	7
TAP	51	48	3
STR	51	96	4
SI_	51	96	4	96	48	0
SI_	51	96	4	96	48	6
TAP	51	192	4
XHO	51	288	2	240
XTP	51	288	7
TAP	51	336	6
HLD	52	0	5	144
TAP	52	192	2
TAP	52	192	5
STR	52	288	3
SI_	52	288	3	96	48	7
STR	52	288	4
SCR	52	288	4	96	48	6
XTP	53	0	3
XTP	53	0	4
STR	53	96	3
SI_	53	96	3	96	48	7
STR	53	96	4
SCR	53	96	4	96	48	6
XTP	53	192	3
XTP	53	192	4
TAP	53	288	3
TAP	53	288	4
HLD	54	0	6	48
HLD	54	0	7	48
HLD	54	96	5	48
HLD	54	96	6	48
TAP	54	192	3
TAP	54	192	4
TAP	54	240	1
TAP	54	240	6
STR	54	288	3
SCL	54	288	3	96	48	1
STR	54	288	4
SI_	54	288	4	96	48	0
XTP	55	0	3
XTP	55	0	4
STR	55	96	3
SCL	55	96	3	96	48	1
STR	55	96	4
SI_	55	96	4	96	48	0
XTP	55	192	3
XTP	55	192	4
TAP	55	288	3
TAP	55	288	4
HLD	56	0	0	48
HLD	56	0	1	48
HLD	56	96	1	48
HLD	56	96	2	48
STR	56	192	3
SI_	56	192	3	96	48	6
STR	56	192	4
SI_	56	192	4	96	48	1
TAP	56	240	2
TAP	56	240	5
XTP	57	0	2
XTP	57	0	5
HLD	59	0	2	384
TAP	59	0	5
TTP	59	288	3	B	0	M1
HLD	60	0	5	480
TTP	60	288	4	B	0	M1
HLD	61	0	3	96
HLD	61	192	2	96
HLD	61	192	4	96
HLD	62	0	1	96
HLD	62	0	5	96
HLD	62	192	2	96
HLD	62	192	6	96
TAP	63	0	3
HLD	63	0	5	96
HLD	63	192	2	96
TAP	63	192	4
TTP	64	0	0	C	0	M1
HLD	64	0	6	96
TTP	64	192	0	C	0	M1
HLD	64	192	1	96
XST	65	0	0
SI_	65	0	0	96	48	4
TAP	65	96	4
HLD	65	192	5	72
HLD	65	264	6	72
TAP	65	336	7
STR	66	0	7
SI_	66	0	7	96	48	3
TAP	66	96	3
HLD	66	192	2	72
HLD	66	264	1	72
TAP	66	336	0
STR	67	0	0
SI_	67	0	0	96	48	4
TAP	67	96	4
HLD	67	192	6	72
HLD	67	264	5	72
TAP	67	336	4
STR	68	0	4
SI_	68	0	4	96	48	7
STR	68	96	1
SI_	68	96	1	96	48	4
TAP	68	192	0
TAP	68	264	6
HLD	68	336	3	192
TAP	68	336	4
HLD	69	0	4	144
TAP	70	0	2
BRK	70	0	5
TAP	70	48	3
BRK	70	48	4
TAP	70	96	1
BRK	70	96	6
TAP	70	144	3
BRK	70	144	4
TAP	70	192	0
BRK	70	192	7
TAP	70	240	2
BRK	70	240	5
TTP	70	288	0	C	1	M1
TTP	70	288	1	B	0	M1
TTP	70	288	2	B	0	M1
TTP	70	288	2	E	0	M1
TTP	70	288	3	B	0	M1
TTP	70	288	4	B	0	M1
TTP	70	288	4	E	0	M1
TTP	70	288	5	B	0	M1
TTP	70	288	6	B	0	M1
TTP	70	288	6	E	0	M1
STR	71	0	0
SI_	71	0	0	96	48	4
BST	71	0	7
SI_	71	0	7	96	48	3
TAP	71	48	0
BRK	71	48	7
TAP	71	96	0
BRK	71	96	7
STR	71	192	0
SI_	71	192	0	96	48	4
TAP	71	240	7
STR	71	288	6
SCR	71	288	6	96	48	1
TAP	71	336	5
STR	72	0	3
SI_	72	0	3	96	48	7
TAP	72	48	2
BST	72	96	4
SF_	72	96	4	96	48	0
BRK	72	192	4
XTP	72	288	2
XTP	72	288	6
TAP	72	336	3
STR	73	0	7
SCL	73	0	7	96	48	4
TAP	73	48	4
TAP	73	96	3
TAP	73	144	2
STR	73	192	1
SCR	73	192	1	96	48	4
TAP	73	240	4
TAP	73	288	5
TAP	73	336	6
XST	74	0	7
SCL	74	0	7	96	48	4
SCR	74	0	7	96	48	2
BST	74	96	7
SF_	74	96	7	96	48	3
BRK	74	192	7
XTP	74	288	0
XTP	74	288	6
TAP	74	336	1
STR	75	0	2
SI_	75	0	2	96	48	6
TAP	75	48	4
STR	75	96	5
SCR	75	96	5	96	48	0
STR	75	192	3
SI_	75	192	3	96	48	7
TAP	75	240	2
STR	75	288	4
SI_	75	288	4	96	48	0
TAP	75	336	5
TAP	76	0	1
TAP	76	48	2
BST	76	96	3
SF_	76	96	3	96	48	7
BRK	76	192	3
XTP	76	288	1
XTP	76	288	5
TAP	76	336	4
STR	77	0	2
SI_	77	0	2	96	48	0
TAP	77	0	3
TAP	77	48	4
TAP	77	96	2
STR	77	96	5
SI_	77	96	5	96	48	3
TAP	77	144	6
STR	77	192	2
SI_	77	192	2	96	48	7
TAP	77	192	5
TAP	77	240	1
TAP	77	288	2
STR	77	288	5
SI_	77	288	5	96	48	1
TAP	77	336	6
XST	78	0	0
SCL	78	0	0	96	48	5
SCR	78	0	0	96	48	3
TAP	78	0	5
BST	78	96	0
SF_	78	96	0	96	48	4
BRK	78	192	0
BRK	78	288	1
BRK	78	288	7
TAP	78	336	2
STR	79	0	3
SCL	79	0	3	96	96	7
TAP	79	0	4
TAP	79	96	6
TAP	79	144	5
STR	79	192	4
SCR	79	192	4	96	96	0
TAP	79	288	2
TAP	79	336	3
STR	80	0	4
SLL	80	0	4	96	96	0
TAP	80	96	6
TAP	80	144	5
STR	80	192	4
SI_	80	192	4	96	48	0
TAP	80	288	2
HLD	80	336	3	96
TAP	81	48	7
STR	81	96	2
SCL	81	96	2	96	48	7
STR	81	96	6
SCL	81	96	6	96	48	3
XTP	81	192	2
XTP	81	192	6
XTP	81	288	0
XTP	81	288	4
TAP	81	336	1
STR	82	0	2
SI_	82	0	2	96	48	7
TAP	82	0	6
TAP	82	48	7
TAP	82	96	2
STR	82	96	6
SCL	82	96	6	96	96	1
TAP	82	192	0
TTP	82	288	0	C	1	M1
STR	83	0	0
SXL	83	0	0	96	144	7
TAP	83	96	7
TAP	83	144	6
STR	83	192	5
SXL	83	192	5	96	144	4
TAP	83	288	0
TAP	83	336	1
STR	84	0	2
SXR	84	0	2	96	144	3
TAP	84	96	3
TAP	84	144	4
STR	84	192	5
SCR	84	192	5	96	48	0
TAP	84	288	4
HLD	84	336	3	96
TAP	85	48	7
STR	85	96	2
SCL	85	96	2	96	48	7
STR	85	96	6
SCL	85	96	6	96	48	3
TAP	85	192	2
TAP	85	192	6
XTP	85	288	0
STR	85	336	1
SLR	85	336	1	96	96	7
TAP	85	336	7
TAP	86	48	5
STR	86	96	4
SI_	86	96	4	96	48	0
SI_	86	96	4	96	48	6
TAP	86	192	4
XTP	86	288	7
BRK	87	0	3
BRK	87	0	5
TAP	87	48	2
TAP	87	48	4
TAP	87	96	3
TAP	87	96	6
TAP	87	144	1
TAP	87	144	4
TAP	87	192	3
TAP	87	192	6
TAP	87	240	0
TAP	87	240	4
TAP	87	288	2
STR	87	288	7
SI_	87	288	7	96	48	3
TAP	87	336	1
TAP	87	336	5
BRK	88	0	3
BRK	88	0	7
STR	88	96	1
SCR	88	96	1	96	144	7
BST	88	192	5
SCR	88	192	5	96	96	1
STR	88	288	1
SCR	88	288	1	96	96	5
BST	89	0	5
SCR	89	0	5	96	96	1
STR	89	96	1
SXR	89	96	1	96	156	4
TTP	89	192	0	C	1	M1
TAP	90	0	5
TAP	90	48	5
TAP	90	96	4
TAP	90	96	6
TAP	90	144	3
TAP	90	192	2
TAP	90	192	4
TAP	90	240	5
TAP	90	288	3
TAP	90	288	6
TAP	90	336	2
HLD	91	0	1	48
TAP	91	0	4
TAP	91	48	5
TAP	91	96	3
HLD	91	96	6	48
TAP	91	144	2
STR	91	192	1
SI_	91	192	1	96	48	5
TAP	91	192	4
TAP	91	240	5
BRK	91	288	7
TAP	92	0	3
TAP	92	0	6
TAP	92	48	5
TAP	92	72	4
TAP	92	96	5
TAP	92	144	2
TAP	92	168	3
TAP	92	192	2
TAP	92	240	5
TAP	92	264	4
TAP	92	288	6
TAP	92	336	2
TAP	92	360	3
TAP	93	0	1
TAP	93	48	6
TAP	93	72	4
TAP	93	96	5
TAP	93	144	1
TAP	93	168	3
TAP	93	192	2
TAP	93	240	4
TAP	93	288	3
TAP	93	288	5
TAP	93	336	2
TAP	93	336	6
TAP	94	0	1
TAP	94	24	0
TAP	94	48	2
TAP	94	72	7
TAP	94	96	3
TAP	94	120	6
TAP	94	144	4
TAP	94	168	5
TAP	94	192	2
TAP	94	216	3
TAP	94	240	1
TAP	94	264	4
TAP	94	288	0
TAP	94	312	5
TAP	94	336	7
TAP	94	360	6
TAP	95	0	4
TAP	95	24	5
TAP	95	48	3
TAP	95	72	4
TAP	95	96	2
TAP	95	120	3
TAP	95	144	2
STR	95	192	1
SI_	95	192	1	96	48	4
STR	95	192	5
SI_	95	192	5	96	48	0
TAP	95	240	0
TAP	95	240	4
BST	95	288	1
SLL	95	288	1	96	192	4
BST	95	288	5
SLL	95	288	5	96	192	0

T_REC_TAP	369
T_REC_BRK	25
T_REC_XTP	46
T_REC_HLD	80
T_REC_XHO	1
T_REC_STR	108
T_REC_BST	9
T_REC_XST	7
T_REC_TTP	19
T_REC_THO	1
T_REC_SLD	134
T_REC_ALL	799
T_NUM_TAP	549
T_NUM_BRK	34
T_NUM_HLD	82
T_NUM_SLD	134
T_NUM_ALL	799
T_JUDGE_TAP	583
T_JUDGE_HLD	196
T_JUDGE_SLD	134
T_JUDGE_ALL	913
TTM_EACHPAIRS	142
TTM_SCR_TAP	274500
TTM_SCR_BRK	88400
TTM_SCR_HLD	82000
TTM_SCR_SLD	201000
TTM_SCR_ALL	645900
TTM_SCR_S	623250
TTM_SCR_SS	642500
TTM_RAT_ACV	10052

