VERSION	0.00.00	1.03.00
FES_MODE	0
BPM_DEF	150.000	150.000	150.000	150.000
MET_DEF	4	4
RESOLUTION	384
CLK_DEF	384
COMPATIBLE_CODE	MA2

BPM	0	0	150.000
MET	0	0	4	4

TTP	3	0	2	B	0	M1
TTP	3	0	3	B	0	M1
TTP	3	192	4	B	0	M1
TTP	3	192	5	B	0	M1
TTP	4	0	1	B	0	M1
TTP	4	0	2	B	0	M1
TTP	4	0	3	E	0	M1
TTP	4	192	5	B	0	M1
TTP	4	192	5	E	0	M1
TTP	4	192	6	B	0	M1
TTP	5	0	2	B	0	M1
TTP	5	0	2	E	0	M1
TTP	5	0	3	B	0	M1
TTP	5	0	4	E	0	M1
TTP	5	192	4	B	0	M1
TTP	5	192	4	E	0	M1
TTP	5	192	5	B	0	M1
TTP	5	192	6	E	0	M1
TTP	6	0	1	B	0	M1
TTP	6	0	1	E	0	M1
TTP	6	0	2	B	0	M1
TTP	6	0	3	E	0	M1
TTP	6	192	5	B	0	M1
TTP	6	192	5	E	0	M1
TTP	6	192	6	B	0	M1
TTP	6	192	7	E	0	M1
TAP	7	0	0
TAP	7	0	7
TAP	7	96	2
TAP	7	96	3
HLD	7	192	4	72
TAP	7	192	5
HLD	7	264	3	72
TAP	7	336	2
TAP	8	48	0
TAP	8	96	0
TAP	8	192	1
TAP	8	192	7
TAP	8	288	2
TAP	8	288	6
TAP	9	0	0
TAP	9	0	7
TAP	9	96	4
TAP	9	96	5
TAP	9	192	2
HLD	9	192	3	72
HLD	9	264	4	72
STR	9	336	5
SCR	9	336	5	96	168	2
BRK	10	288	0
XTP	11	0	3
XTP	11	0	4
TAP	11	96	5
TAP	11	192	4
HLD	11	288	6	96
TAP	12	0	4
TAP	12	96	7
TAP	12	192	5
TAP	12	288	4
TAP	12	288	6
HLD	13	0	7	96
HLD	13	96	5	96
HLD	13	192	4	96
TAP	13	288	3
TAP	14	0	3
TAP	14	0	4
STR	14	96	5
SCL	14	96	5	96	96	2
TAP	14	144	5
TAP	15	0	3
TAP	15	0	4
TAP	15	96	6
TAP	15	192	5
STR	15	288	7
SUR	15	288	7	96	96	4
TAP	16	192	5
TAP	16	288	6
TAP	17	0	3
HLD	17	0	4	96
HLD	17	96	6	96
HLD	17	192	7	96
TAP	17	288	0
TAP	18	0	0
TAP	18	0	7
STR	18	96	6
SI_	18	96	6	96	72	2
TAP	18	144	6
BRK	18	288	0
XTP	19	0	3
XTP	19	0	4
TAP	19	96	2
HLD	19	192	1	96
HLD	19	192	3	96
TAP	20	0	2
TAP	20	96	0
TAP	20	192	3
TAP	20	288	2
TAP	20	288	3
TAP	21	0	1
TAP	21	96	1
HLD	21	192	0	96
HLD	21	192	2	96
TAP	22	0	1
TAP	22	0	3
STR	22	96	2
SCR	22	96	2	96	96	5
TAP	22	144	2
TAP	23	0	3
TAP	23	0	4
TAP	23	96	1
TAP	23	192	2
STR	23	288	0
SUL	23	288	0	96	96	3
TAP	24	192	2
TAP	24	288	1
HLD	25	0	0	96
TAP	25	96	2
HLD	25	192	3	96
TAP	25	288	1
TAP	26	0	0
TAP	26	0	7
STR	26	96	1
SI_	26	96	1	96	72	5
TAP	26	144	1
BRK	26	288	7
TAP	27	0	0
HLD	27	0	6	96
HLD	27	192	4	96
TAP	27	192	5
TAP	28	0	3
HLD	28	0	5	96
TAP	28	192	0
HLD	28	192	7	96
TAP	29	0	4
HLD	29	0	6	96
TAP	29	192	3
HLD	29	192	4	96
TAP	30	0	0
HLD	30	0	5	96
STR	30	192	6
SI_	30	192	6	96	72	2
TAP	30	192	7
TAP	31	0	0
TAP	31	96	1
TAP	31	192	3
TAP	31	192	4
HLD	31	288	2	96
TAP	32	0	3
TAP	32	96	1
TAP	32	96	4
TAP	32	192	0
TAP	32	288	0
TAP	32	288	7
HLD	33	0	1	96
HLD	33	96	2	96
HLD	33	192	3	96
STR	33	288	4
SCR	33	288	4	96	288	3
TAP	35	0	0
XTP	35	48	0
XTP	35	96	7
XTP	35	144	7
XTP	35	192	0
XTP	35	240	0
BRK	35	288	7
TAP	36	0	1
TAP	36	0	6
TAP	36	48	1
TAP	36	48	6
TAP	36	96	1
TAP	36	96	6
TAP	36	192	2
TAP	36	192	3
TAP	36	240	1
TAP	36	240	4
TAP	36	336	4
TAP	36	336	5
TAP	37	0	3
TAP	37	0	6
STR	37	96	3
SCL	37	96	3	96	72	0
STR	37	96	4
SCR	37	96	4	96	72	7
TAP	38	0	0
TAP	38	0	7
TAP	38	96	1
TAP	38	96	3
TAP	38	192	4
TAP	38	192	6
TAP	38	288	7
TAP	38	336	7
STR	39	0	1
SUR	39	0	1	96	48	5
STR	39	96	6
SUL	39	96	6	96	48	2
XTP	39	192	0
XTP	39	288	7
TAP	40	0	1
TAP	40	0	6
TAP	40	48	1
TAP	40	48	6
TAP	40	96	1
TAP	40	96	6
TAP	40	192	4
TAP	40	192	5
TAP	40	240	3
TAP	40	240	6
TAP	40	336	2
TAP	40	336	3
TAP	41	0	1
TAP	41	0	4
TAP	41	96	0
STR	41	96	5
SCL	41	96	5	96	96	0
TAP	42	0	6
TAP	42	0	7
TAP	42	96	0
TAP	42	96	1
TAP	42	192	2
TAP	42	240	2
TAP	42	288	3
TAP	43	0	4
TAP	43	0	5
STR	43	96	1
SCR	43	96	1	96	32	3
STR	43	192	6
SCL	43	192	6	96	32	4
BRK	43	288	0
HLD	44	0	1	96
HLD	44	0	7	96
TAP	44	144	2
TAP	44	144	6
HLD	44	192	2	96
HLD	44	192	6	96
TAP	44	336	3
TAP	44	336	5
HLD	45	0	3	96
HLD	45	0	5	96
TAP	45	144	4
HLD	45	192	4	96
TAP	45	288	0
STR	46	0	1
SV_	46	0	1	96	48	3
STR	46	0	7
SV_	46	0	7	96	48	5
TAP	46	192	4
TAP	46	288	2
TAP	46	288	3
TAP	47	0	0
TAP	47	0	1
TAP	47	96	6
TAP	47	96	7
TAP	47	192	4
TAP	47	192	5
TAP	47	288	3
TAP	47	288	7
HLD	48	0	0	96
HLD	48	0	6	96
TAP	48	144	1
TAP	48	144	5
HLD	48	192	1	96
HLD	48	192	5	96
TAP	48	336	2
TAP	48	336	4
HLD	49	0	2	96
HLD	49	0	4	96
TAP	49	144	3
HLD	49	192	3	96
TAP	49	288	7
STR	50	0	0
SV_	50	0	0	96	48	3
STR	50	0	6
SV_	50	0	6	96	48	3
TAP	50	192	2
TAP	50	192	4
TAP	50	288	0
TAP	50	288	1
TAP	51	0	6
TAP	51	0	7
TAP	51	96	4
TAP	51	96	5
TAP	51	192	2
TAP	51	192	3
TAP	51	288	0
TAP	51	288	4
THO	52	0	0	384	C	1	M1
TAP	53	192	0
TAP	53	288	1
TAP	53	288	3
TAP	54	0	2
TAP	54	96	0
TAP	54	96	7
TAP	54	192	7
TAP	54	288	4
TAP	54	288	6
TAP	55	0	5
TAP	55	96	0
TAP	55	96	7
TAP	55	192	1
TAP	55	288	2
TAP	55	288	4
TAP	56	0	3
TAP	56	96	0
TAP	56	96	7
TAP	56	192	6
TAP	56	288	3
TAP	56	288	5
HLD	57	0	4	1536
TTP	57	192	5	E	0	M1
TTP	58	0	6	E	0	M1
TTP	58	192	7	E	0	M1
TTP	59	0	0	E	0	M1
TTP	59	192	1	E	0	M1
TTP	60	0	2	E	0	M1
TTP	60	192	3	E	0	M1
HLD	61	0	3	192
TAP	61	96	4
HLD	61	192	4	192
TAP	61	288	3
HLD	62	0	3	192
TAP	62	96	5
HLD	62	192	4	192
TAP	62	288	2
HLD	63	0	3	192
TAP	63	96	6
HLD	63	192	4	192
TAP	63	288	1
TAP	64	0	3
TAP	64	96	2
TAP	64	96	5
TAP	64	192	1
TAP	64	192	6
TAP	64	288	0
TAP	64	288	7
TAP	65	0	1
TAP	65	96	1
HLD	65	192	1	72
HLD	65	264	2	72
TAP	65	336	3
TAP	66	0	3
TAP	66	96	2
HLD	66	192	2	72
HLD	66	264	3	72
TAP	66	336	4
TAP	67	0	4
TAP	67	96	6
HLD	67	192	6	72
HLD	67	264	5	72
TAP	67	336	4
TAP	68	0	4
TAP	68	96	5
HLD	68	192	5	72
HLD	68	264	4	72
TAP	68	336	3
TAP	69	0	3
XTP	70	0	0
XTP	70	0	7
BRK	70	48	1
BRK	70	96	2
BRK	70	144	3
BRK	70	192	4
BRK	70	240	5
BRK	70	288	6
BRK	70	336	0
BRK	70	336	7
XTP	71	0	1
XTP	71	0	6
XTP	71	48	1
XTP	71	48	6
XTP	71	96	1
XTP	71	96	6
XTP	71	192	4
XTP	71	192	6
TAP	71	240	4
TAP	71	240	6
TAP	71	336	1
TAP	71	336	3
XST	72	0	1
SI_	72	0	1	96	48	6
XTP	72	0	3
STR	72	96	5
SI_	72	96	5	96	48	2
TAP	72	192	0
XTP	72	288	0
XTP	72	288	7
TAP	73	0	5
TAP	73	0	6
TAP	73	96	3
TAP	73	96	4
TAP	73	192	1
TAP	73	192	2
TAP	73	288	0
TAP	73	336	0
TAP	74	0	7
STR	74	96	0
SUR	74	96	0	96	48	4
STR	74	96	4
SUR	74	96	4	96	48	0
XTP	74	288	2
XTP	74	288	6
TAP	75	0	1
TAP	75	0	5
TAP	75	48	1
TAP	75	48	5
TAP	75	96	1
TAP	75	96	5
TAP	75	192	0
TAP	75	192	2
TAP	75	240	0
TAP	75	240	2
TAP	75	336	5
TAP	75	336	7
XST	76	0	5
SI_	76	0	5	96	48	2
XTP	76	0	7
STR	76	96	1
SI_	76	96	1	96	48	6
TAP	76	192	4
XTP	76	288	0
XTP	76	288	7
TAP	77	0	1
TAP	77	0	2
TAP	77	96	3
TAP	77	96	4
TAP	77	192	5
TAP	77	192	6
TAP	77	288	7
TAP	77	336	7
TAP	78	0	0
TAP	78	96	2
TAP	78	96	3
STR	78	192	4
SI_	78	192	4	96	48	0
TAP	78	192	5
BRK	78	288	6
HLD	79	0	5	96
HLD	79	0	7	96
TAP	79	144	0
TAP	79	144	4
HLD	79	192	0	96
HLD	79	192	4	96
TAP	79	336	1
TAP	79	336	3
HLD	80	0	1	96
HLD	80	0	3	96
TAP	80	144	2
HLD	80	192	2	96
TTP	80	288	0	C	1	M1
HLD	81	0	6	96
HLD	81	96	5	96
TAP	81	192	4
TAP	81	288	3
TAP	81	288	7
TAP	82	0	6
TAP	82	96	4
TAP	82	96	5
TAP	82	192	2
STR	82	192	3
SI_	82	192	3	96	48	7
BRK	82	288	1
HLD	83	0	0	96
HLD	83	0	2	96
TAP	83	144	3
TAP	83	144	7
HLD	83	192	3	96
HLD	83	192	7	96
TAP	83	336	4
TAP	83	336	6
HLD	84	0	4	96
HLD	84	0	6	96
TAP	84	144	5
HLD	84	192	5	96
TTP	84	288	0	C	1	M1
HLD	85	0	1	96
HLD	85	96	2	96
TAP	85	192	3
TAP	85	288	0
TAP	85	288	4
TAP	86	0	1
TAP	86	96	2
TAP	86	96	3
STR	86	192	4
SI_	86	192	4	96	48	0
TAP	86	192	5
TAP	86	288	6
TAP	87	0	7
XTP	87	48	7
XTP	87	96	7
XTP	87	144	7
XTP	87	192	7
XTP	87	240	7
BST	87	288	7
SI_	87	288	7	96	48	3
TAP	88	0	0
STR	88	96	1
SCR	88	96	1	96	48	4
TAP	88	192	5
STR	88	288	6
SCL	88	288	6	96	48	3
TAP	89	0	1
STR	89	96	0
SI_	89	96	0	96	48	4
TAP	89	192	7
TAP	89	288	0
TAP	89	288	7
TAP	90	0	0
TAP	90	0	1
TAP	90	96	6
TAP	90	96	7
HLD	90	192	0	72
HLD	90	264	1	72
TAP	90	336	2
TAP	91	48	2
TAP	91	48	4
TAP	91	96	2
TAP	91	96	4
TAP	91	192	3
TAP	91	192	6
TAP	91	288	1
TAP	91	288	5
TAP	92	0	6
TAP	92	0	7
TAP	92	96	0
TAP	92	96	1
HLD	92	192	7	72
HLD	92	264	6	72
TAP	92	336	5
TAP	93	48	3
TAP	93	48	5
TAP	93	96	3
TAP	93	96	5
TAP	93	192	1
TAP	93	192	4
TAP	93	288	2
TAP	93	288	6
STR	94	0	0
SI_	94	0	0	96	48	3
TAP	94	96	3
STR	94	192	7
SI_	94	192	7	96	48	4
TAP	94	288	4
STR	95	0	0
SCR	95	0	0	96	48	3
TAP	95	96	3
STR	95	192	7
SCL	95	192	7	96	48	4
TAP	95	288	4
STR	96	0	0
SV_	96	0	0	96	144	3
SV_	96	0	0	96	144	5

T_REC_TAP	309
T_REC_BRK	15
T_REC_XTP	34
T_REC_HLD	79
T_REC_XHO	0
T_REC_STR	35
T_REC_BST	1
T_REC_XST	2
T_REC_TTP	35
T_REC_THO	1
T_REC_SLD	39
T_REC_ALL	550
T_NUM_TAP	415
T_NUM_BRK	16
T_NUM_HLD	80
T_NUM_SLD	39
T_NUM_ALL	550
T_JUDGE_TAP	431
T_JUDGE_HLD	208
T_JUDGE_SLD	39
T_JUDGE_ALL	678
TTM_EACHPAIRS	144
TTM_SCR_TAP	207500
TTM_SCR_BRK	41600
TTM_SCR_HLD	80000
TTM_SCR_SLD	58500
TTM_SCR_ALL	387600
TTM_SCR_S	374450
TTM_SCR_SS	386000
TTM_RAT_ACV	10041

