VERSION	0.00.00	1.03.00
FES_MODE	0
BPM_DEF	150.000	150.000	150.000	150.000
MET_DEF	4	4
RESOLUTION	384
CLK_DEF	384
COMPATIBLE_CODE	MA2

BPM	0	0	150.000
MET	0	0	4	4

HLD	3	0	2	192
HLD	3	192	3	192
HLD	4	0	4	192
TAP	4	192	5
HLD	5	0	6	192
HLD	5	192	7	192
HLD	6	0	0	192
TAP	6	192	1
TTP	7	0	2	E	0	L1
TTP	7	96	2	B	0	L1
TTP	7	192	3	B	0	L1
TTP	8	0	6	E	0	L1
TTP	8	96	5	B	0	L1
TTP	8	192	4	B	0	L1
TTP	9	0	1	B	0	L1
TTP	9	96	2	B	0	L1
TTP	9	192	3	E	0	L1
TTP	10	0	6	B	0	L1
TTP	10	96	5	B	0	L1
TTP	10	192	5	E	0	L1
XTP	11	0	2
TAP	11	96	2
TAP	11	192	3
TAP	12	0	5
TAP	12	96	5
TAP	12	192	4
TAP	13	0	2
TAP	13	96	2
TAP	13	192	3
TAP	14	0	4
TAP	14	96	4
TAP	14	192	3
TAP	14	192	5
TAP	15	0	6
TAP	15	96	6
TAP	15	192	7
TAP	16	0	1
TAP	16	96	1
TAP	16	192	0
TAP	17	0	6
TAP	17	96	6
TAP	17	192	7
TAP	18	0	0
TAP	18	96	0
TAP	18	192	1
TAP	18	192	7
HLD	19	0	2	96
TAP	19	96	3
TAP	19	192	3
HLD	20	0	5	96
TAP	20	96	4
TAP	20	192	4
HLD	21	0	2	96
TAP	21	96	3
TAP	21	192	3
HLD	22	0	4	96
HLD	22	0	5	96
TAP	22	192	4
TAP	22	192	5
HLD	23	0	6	96
TAP	23	96	7
TAP	23	192	7
HLD	24	0	1	96
TAP	24	96	0
TAP	24	192	0
HLD	25	0	6	96
TAP	25	96	7
TAP	25	192	7
HLD	26	0	0	96
HLD	26	0	7	96
TAP	26	192	0
TAP	26	192	7
TTP	27	0	0	E	0	L1
TTP	27	192	1	E	0	L1
TTP	28	0	2	E	0	L1
TTP	28	192	3	E	0	L1
TTP	29	0	4	E	0	L1
TTP	29	192	5	E	0	L1
TTP	30	0	6	E	0	L1
TTP	30	192	7	E	0	L1
TAP	31	0	1
TAP	31	96	1
TAP	31	192	0
TAP	31	192	1
TAP	32	0	6
TAP	32	96	6
TAP	32	192	6
TAP	32	192	7
TAP	33	0	5
TAP	33	96	4
TAP	33	192	3
TAP	33	288	2
TAP	34	0	1
TAP	34	96	0
TAP	34	192	7
TAP	34	288	6
TAP	35	0	0
TAP	35	48	0
TAP	35	96	0
TAP	35	192	1
TAP	35	192	6
BRK	36	0	7
TAP	36	96	7
TAP	36	192	6
TAP	36	192	7
TAP	36	288	6
TAP	36	288	7
TAP	37	0	5
TAP	37	96	4
TAP	37	192	3
TAP	37	192	5
TAP	38	0	2
TAP	38	96	2
TAP	38	192	2
TAP	38	192	3
TAP	38	288	2
TAP	38	288	3
TAP	39	0	1
TAP	39	96	0
TAP	39	192	1
TAP	39	192	7
TAP	40	0	1
TAP	40	96	1
TAP	40	192	0
TAP	40	192	1
TAP	40	288	0
TAP	40	288	1
TAP	41	0	2
TAP	41	96	3
TAP	41	192	2
TAP	41	192	4
TAP	42	0	5
TAP	42	96	5
TAP	42	192	4
TAP	42	192	5
TAP	42	288	4
TAP	42	288	5
TAP	43	0	6
TAP	43	96	7
TAP	43	192	0
TAP	43	288	1
BST	44	0	2
SCL	44	0	2	96	144	7
STR	45	0	6
SCL	45	0	6	96	144	3
TAP	46	0	2
TAP	46	96	2
TAP	46	192	2
TAP	46	192	3
TAP	47	0	5
TAP	47	96	5
TAP	47	192	4
TAP	47	192	5
BST	48	0	6
SCL	48	0	6	96	144	3
STR	49	0	2
SCL	49	0	2	96	144	7
TAP	50	0	6
TAP	50	96	6
TAP	50	192	6
TAP	50	192	7
TAP	51	0	1
TAP	51	96	1
TAP	51	192	0
TAP	51	288	0
STR	52	0	0
SI_	52	0	0	96	144	3
STR	52	0	7
SI_	52	0	7	96	144	4
BRK	53	0	5
TAP	53	96	5
TAP	53	192	4
TAP	53	288	4
TAP	54	0	3
TAP	54	96	3
TAP	54	192	2
TAP	54	192	4
TAP	55	0	1
TAP	55	96	1
TAP	55	192	0
TAP	55	288	0
TAP	56	0	7
TAP	56	96	0
TAP	56	96	7
TAP	56	192	1
TAP	56	192	6
HLD	57	0	5	384
HLD	58	0	4	384
HLD	59	0	3	384
TAP	60	0	2
TAP	60	192	3
TAP	60	192	4
TTP	61	0	4	E	0	L1
TTP	61	192	5	E	0	L1
TTP	62	0	6	E	0	L1
TTP	62	192	7	E	0	L1
TTP	63	0	0	E	0	L1
TTP	63	192	1	E	0	L1
TTP	64	0	2	E	0	L1
TTP	64	192	3	E	0	L1
XTP	65	0	5
TAP	65	96	5
TAP	65	192	4
TAP	65	192	5
TAP	66	0	2
TAP	66	96	2
TAP	66	192	2
TAP	66	192	3
TAP	67	0	5
TAP	67	96	5
TAP	67	192	4
TAP	67	192	5
TAP	68	0	2
TAP	68	96	2
TAP	68	192	3
TAP	68	288	4
STR	69	0	3
SCL	69	0	3	96	144	0
STR	69	0	4
SCR	69	0	4	96	144	7
XTP	70	0	0
XTP	70	0	7
XTP	70	96	0
XTP	70	96	7
XTP	70	192	0
XTP	70	192	7
BRK	71	0	1
TAP	71	96	0
TAP	71	96	1
TAP	71	192	1
TAP	71	288	0
TAP	71	288	1
TAP	72	0	2
TAP	72	96	3
TAP	72	192	2
TAP	72	192	4
TAP	73	0	5
TAP	73	96	4
TAP	73	96	5
TAP	73	192	5
TAP	73	288	4
TAP	73	288	5
TAP	74	0	6
TAP	74	96	7
TAP	74	192	0
TAP	74	192	6
TAP	75	0	6
TAP	75	96	6
TAP	75	96	7
TAP	75	192	6
TAP	75	288	6
TAP	75	288	7
TAP	76	0	5
TAP	76	96	4
TAP	76	192	3
TAP	76	192	5
TAP	77	0	2
TAP	77	96	2
TAP	77	96	3
TAP	77	192	2
TAP	77	288	2
TAP	77	288	3
TAP	78	0	1
TAP	78	96	0
TAP	78	192	7
TAP	78	288	6
BST	79	0	5
SCR	79	0	5	96	144	0
STR	80	0	1
SCR	80	0	1	96	144	4
TAP	81	0	5
TAP	81	96	5
TAP	81	192	4
TAP	81	192	5
TAP	82	0	2
TAP	82	96	2
TAP	82	192	2
TAP	82	192	3
BST	83	0	1
SCR	83	0	1	96	144	4
STR	84	0	5
SCR	84	0	5	96	144	0
TAP	85	0	1
TAP	85	96	1
TAP	85	192	0
TAP	85	192	1
TAP	86	0	6
TAP	86	96	6
TAP	86	192	7
TAP	86	288	7
STR	87	0	0
SI_	87	0	0	96	144	3
STR	87	0	7
SI_	87	0	7	96	144	4
TAP	88	0	5
TAP	88	96	5
TAP	88	192	4
TAP	88	288	4
TAP	89	0	3
TAP	89	96	3
TAP	89	192	2
TAP	89	192	4
TAP	90	0	1
TAP	90	96	1
TAP	90	192	0
TAP	90	288	0
TAP	91	0	7
TAP	91	96	7
TAP	91	192	0
TAP	91	192	7
TAP	92	0	6
TAP	92	96	6
TAP	92	192	7
TAP	92	288	7
TAP	93	0	0
TAP	93	96	0
TAP	93	192	1
TAP	93	192	7
TAP	94	0	2
TAP	94	96	2
TAP	94	192	3
TAP	94	288	3
TAP	95	0	4
TAP	95	96	5
TAP	95	192	6
STR	95	288	0
SI_	95	288	0	96	144	3
STR	95	288	7
SI_	95	288	7	96	144	4

T_REC_TAP	239
T_REC_BRK	3
T_REC_XTP	8
T_REC_HLD	19
T_REC_XHO	0
T_REC_STR	12
T_REC_BST	4
T_REC_XST	0
T_REC_TTP	28
T_REC_THO	0
T_REC_SLD	16
T_REC_ALL	329
T_NUM_TAP	287
T_NUM_BRK	7
T_NUM_HLD	19
T_NUM_SLD	16
T_NUM_ALL	329
T_JUDGE_TAP	294
T_JUDGE_HLD	68
T_JUDGE_SLD	16
T_JUDGE_ALL	378
TTM_EACHPAIRS	54
TTM_SCR_TAP	143500
TTM_SCR_BRK	18200
TTM_SCR_HLD	19000
TTM_SCR_SLD	24000
TTM_SCR_ALL	204700
TTM_SCR_S	197900
TTM_SCR_SS	204000
TTM_RAT_ACV	10034

