VERSION	0.00.00	1.03.00
FES_MODE	0
BPM_DEF	150.000	150.000	150.000	150.000
MET_DEF	4	4
RESOLUTION	384
CLK_DEF	384
COMPATIBLE_CODE	MA2

BPM	0	0	150.000
MET	0	0	4	4

TAP	3	0	0
TAP	4	0	0
HLD	5	0	0	384
TAP	7	0	7
TAP	8	0	7
HLD	9	0	7	384
TAP	11	0	0
TAP	12	0	0
TAP	13	0	1
TAP	14	0	1
TAP	15	0	2
TAP	16	0	2
TAP	17	0	3
TAP	18	0	3
TAP	18	0	4
TAP	19	0	4
TAP	20	0	4
TAP	21	0	5
TAP	22	0	5
TAP	23	0	6
TAP	24	0	6
TAP	25	0	7
TAP	26	0	0
TAP	26	0	7
STR	27	0	7
SI_	27	0	7	96	288	4
STR	29	0	0
SI_	29	0	0	96	288	3
STR	31	0	7
SI_	31	0	7	96	288	3
STR	33	0	0
SI_	33	0	0	96	288	4
TAP	35	0	7
BRK	36	0	7
TAP	36	192	7
TAP	37	0	7
TAP	38	0	6
TAP	38	192	6
TAP	39	0	6
TAP	40	0	5
TAP	40	192	5
TAP	41	0	5
TAP	42	0	4
TAP	42	192	4
TAP	43	0	3
TAP	43	0	4
TAP	44	0	3
TAP	44	192	3
TAP	45	0	3
TAP	46	0	2
TAP	46	192	2
TAP	47	0	2
TAP	48	0	1
TAP	48	192	1
TAP	49	0	1
TAP	50	0	0
TAP	50	192	0
HLD	51	0	0	384
HLD	51	0	7	384
TAP	53	0	0
TAP	54	0	1
TAP	55	0	2
TAP	56	0	3
TAP	56	0	4
TTP	57	0	4	B	0	L1
TTP	58	0	3	B	0	L1
TTP	59	0	5	B	0	L1
TTP	60	0	2	B	0	L1
TTP	61	0	6	B	0	L1
TTP	62	0	1	B	0	L1
TTP	63	0	7	B	0	L1
TTP	64	0	0	C	0	L1
TAP	65	0	7
TAP	65	192	7
TAP	66	0	7
TAP	66	192	7
TAP	67	0	0
TAP	67	192	0
TAP	68	0	0
TAP	68	192	0
HLD	69	0	0	384
HLD	69	0	7	384
BRK	71	0	7
TAP	71	192	7
TAP	72	0	6
TAP	72	192	6
TAP	73	0	5
TAP	73	192	5
TAP	74	0	4
TAP	74	0	5
TAP	75	0	3
TAP	75	192	3
TAP	76	0	2
TAP	76	192	2
TAP	77	0	1
TAP	77	192	1
TAP	78	0	0
TAP	78	0	1
TAP	79	0	0
TAP	79	192	0
TAP	80	0	1
TAP	80	192	1
TAP	81	0	2
TAP	81	192	2
TAP	82	0	3
TAP	82	0	4
TAP	82	192	3
TAP	82	192	4
TAP	83	0	4
TAP	83	192	4
TAP	84	0	5
TAP	84	192	5
TAP	85	0	6
TAP	85	192	6
TAP	86	0	7
TAP	86	192	7
XTP	87	0	0
XTP	87	0	7
STR	88	0	7
SI_	88	0	7	96	288	3
STR	90	0	0
SI_	90	0	0	96	288	4
TAP	92	0	7
TAP	92	192	6
TAP	93	0	5
TAP	93	192	4
TAP	94	0	3
TAP	94	192	2
TAP	95	0	1
HLD	95	192	0	288
HLD	95	192	7	288

T_REC_TAP	99
T_REC_BRK	2
T_REC_XTP	2
T_REC_HLD	8
T_REC_XHO	0
T_REC_STR	6
T_REC_BST	0
T_REC_XST	0
T_REC_TTP	8
T_REC_THO	0
T_REC_SLD	6
T_REC_ALL	131
T_NUM_TAP	115
T_NUM_BRK	2
T_NUM_HLD	8
T_NUM_SLD	6
T_NUM_ALL	131
T_JUDGE_TAP	117
T_JUDGE_HLD	60
T_JUDGE_SLD	6
T_JUDGE_ALL	183
TTM_EACHPAIRS	12
TTM_SCR_TAP	57500
TTM_SCR_BRK	5200
TTM_SCR_HLD	8000
TTM_SCR_SLD	9000
TTM_SCR_ALL	79700
TTM_SCR_S	77150
TTM_SCR_SS	79500
TTM_RAT_ACV	10025

