VERSION	0.00.00	1.03.00
FES_MODE	0
BPM_DEF	 92.500	 92.500	 92.500	 92.500
MET_DEF	4	4
RESOLUTION	384
CLK_DEF	384
COMPATIBLE_CODE	MA2

BPM	0	0	 92.500
MET	0	0	4	4

BRK	1	0	0
BRK	1	0	7
TAP	1	96	4
TAP	1	96	6
TAP	1	144	3
TAP	1	192	2
TAP	1	192	4
TAP	1	240	5
TAP	1	288	3
TAP	1	288	6
TAP	1	320	2
TAP	1	336	2
HLD	2	0	1	384
TAP	2	0	3
TTP	2	96	4	B	0	M1
TTP	2	144	3	B	0	M1
TTP	2	192	5	B	0	M1
TTP	2	240	2	B	0	M1
TTP	2	288	7	E	0	M1
TTP	2	336	0	C	0	M1
BRK	3	0	7
TAP	3	96	2
TAP	3	96	4
TAP	3	144	1
TAP	3	192	0
TAP	3	192	3
TAP	3	240	4
XST	3	288	3
SCL	3	288	3	96	32	0
XTP	3	288	5
XTP	3	336	2
XST	3	336	4
SCR	3	336	4	96	32	7
STR	4	0	3
SI_	4	0	3	96	32	7
TAP	4	0	5
STR	4	48	4
SI_	4	48	4	96	32	0
STR	4	96	3
SXR	4	96	3	96	96	7
TAP	4	144	4
TAP	4	336	3
TAP	4	336	4
TAP	5	0	1
TAP	5	0	6
TAP	5	32	5
TAP	5	48	4
TAP	5	80	1
TAP	5	96	0
TAP	5	128	6
TAP	5	144	7
TAP	5	176	2
TAP	5	192	3
TAP	5	224	5
STR	5	240	4
SI_	5	240	4	96	32	7
XTP	5	288	2
XTP	5	288	6
XTP	5	336	4
TAP	5	368	0
TAP	6	0	0
TAP	6	32	1
TAP	6	32	7
TAP	6	80	6
TAP	6	96	4
TAP	6	128	1
TAP	6	144	3
TAP	6	176	5
TAP	6	192	4
TAP	6	224	7
STR	6	240	0
SI_	6	240	0	96	32	3
TAP	6	272	0
STR	6	288	4
SI_	6	288	4	96	32	7
XTP	6	336	0
XTP	7	0	4
TAP	7	32	0
TAP	7	48	0
TAP	7	80	6
TAP	7	96	4
TAP	7	128	1
TAP	7	144	3
XTP	7	176	0
XTP	7	176	4
TAP	7	224	1
TAP	7	240	0
TAP	7	272	2
TAP	7	288	3
TAP	7	320	6
TAP	7	336	4
XTP	7	368	3
XTP	7	368	7
TAP	8	32	6
TAP	8	48	6
TAP	8	64	4
TAP	8	80	5
STR	8	96	3
SXR	8	96	3	96	96	0
TAP	8	128	2
TAP	8	128	6
TAP	8	144	2
TAP	8	144	6
XST	8	192	7
SI_	8	192	7	96	32	4
TAP	8	240	5
XTP	8	288	7
XTP	8	336	0
HLD	9	0	1	32
HLD	9	0	4	32
TAP	9	48	2
TAP	9	48	5
TAP	9	80	3
TAP	9	80	6
HLD	9	96	3	32
HLD	9	96	6	32
TAP	9	144	2
TAP	9	144	5
TAP	9	176	1
TAP	9	176	4
HLD	9	192	1	32
HLD	9	192	4	32
TAP	9	240	2
TAP	9	240	5
TAP	9	272	3
TAP	9	272	6
HLD	9	288	3	32
HLD	9	288	6	32
TAP	9	336	2
TAP	9	336	5
TAP	9	368	1
TAP	9	368	4
HLD	10	0	1	48
TAP	10	0	4
HLD	10	48	3	48
HLD	10	96	4	48
HLD	10	144	6	48
TAP	10	192	1
TAP	10	224	3
TAP	10	240	4
TAP	10	272	1
TAP	10	288	0
TAP	10	320	6
STR	10	336	7
SI_	10	336	7	96	32	3
TAP	11	0	0
TAP	11	0	6
TAP	11	48	7
TAP	11	96	2
TAP	11	128	2
TAP	11	144	0
TAP	11	176	0
TAP	11	192	7
TAP	11	224	7
TAP	11	240	5
TAP	11	272	5
STR	11	288	3
SI_	11	288	3	96	32	7
TAP	11	320	3
STR	11	336	4
SI_	11	336	4	96	32	6
TAP	11	368	4
STR	12	0	3
SI_	12	0	3	96	32	1
TAP	12	48	4
TAP	12	96	3
TAP	12	144	7
TAP	12	176	7
TAP	12	192	2
TAP	12	208	3
TAP	12	224	1
STR	12	240	5
SCL	12	240	5	96	32	2
TAP	12	256	4
TAP	12	272	6
XTP	12	288	0
XTP	12	320	0
BRK	12	336	5
TTP	13	0	0	C	1	M1
TTP	13	0	3	B	0	M1
TTP	13	0	4	B	0	M1
XTP	13	48	0
XTP	13	80	0
XTP	13	96	7
XTP	13	128	7
XTP	13	144	1
XTP	13	144	6
HLD	13	192	2	32
HLD	13	192	3	32
HLD	13	240	0	32
HLD	13	240	1	32
HLD	13	288	6	32
HLD	13	288	7	32
HLD	13	336	4	32
HLD	13	336	5	32
TAP	14	0	2
TAP	14	16	2
TAP	14	32	3
TAP	14	48	1
TAP	14	64	1
TAP	14	80	3
TAP	14	96	0
TAP	14	112	0
TAP	14	128	3
TAP	14	144	7
TAP	14	160	7
TAP	14	176	3
TAP	14	192	6
TAP	14	208	6
TAP	14	224	3
TAP	14	240	5
TAP	14	256	5
TAP	14	272	3
TAP	14	288	4
BRK	14	336	2
BRK	14	336	5
STR	15	0	6
SI_	15	0	6	96	32	4
TAP	15	48	3
TAP	15	80	3
XST	15	96	6
SI_	15	96	6	96	32	3
TAP	15	144	2
TAP	15	176	2
XST	15	192	6
SI_	15	192	6	96	32	2
TAP	15	240	1
TAP	15	272	1
XST	15	288	6
SI_	15	288	6	96	32	1
TAP	15	336	0
TAP	15	368	0
XTP	16	0	6
TAP	16	48	2
TAP	16	80	2
STR	16	96	4
SUR	16	96	4	96	48	3
TAP	16	128	4
TAP	16	144	3
TAP	16	176	3
TAP	16	192	4
STR	16	288	0
SXR	16	288	0	96	96	4
STR	16	288	7
SXL	16	288	7	96	96	3
XTP	16	320	1
XTP	16	320	6
XTP	16	336	1
XTP	16	336	6
XTP	17	144	2
XTP	17	144	6
BRK	17	192	1
BRK	17	192	5
TAP	17	224	2
TAP	17	240	3
TAP	17	272	0
STR	17	288	7
SXR	17	288	7	96	32	5
STR	17	336	7
SXL	17	336	7	96	32	1
XST	18	0	7
SI_	18	0	7	96	32	3
XTP	18	48	7
XTP	18	96	7
TAP	18	144	2
TAP	18	176	2
TAP	18	192	1
TAP	18	192	3
TAP	18	240	5
TAP	18	272	5
STR	18	288	4
SI_	18	288	4	96	32	2
TAP	18	288	6
STR	18	336	4
SI_	18	336	4	96	32	6
XST	19	0	4
SI_	19	0	4	96	32	0
XST	19	48	4
SI_	19	48	4	96	32	7
XTP	19	96	4
XTP	19	144	4
TAP	19	192	1
TAP	19	224	1
TAP	19	240	7
TAP	19	272	7
TAP	19	288	5
TAP	19	320	5
STR	19	336	3
SF_	19	336	3	96	32	7
TAP	19	368	3
STR	20	0	7
SF_	20	0	7	96	32	3
TAP	20	192	6
TAP	20	224	6
TAP	20	240	0
TAP	20	272	0
TAP	20	288	2
TAP	20	320	2
STR	20	336	4
SF_	20	336	4	96	32	0
TAP	20	368	4
STR	21	0	0
SF_	21	0	0	96	32	4
XHO	21	192	7	48
XTP	21	240	4
XTP	21	288	3
XTP	21	288	6
XTP	21	320	3
XTP	21	320	6
TAP	21	368	1
TAP	22	0	3
TAP	22	32	5
TAP	22	48	3
TAP	22	80	2
STR	22	96	4
SCR	22	96	4	96	96	3
TAP	22	128	5
TAP	22	144	3
TTP	22	192	0	C	1	M1
TAP	22	336	2
TAP	22	336	5
STR	23	0	3
SUR	23	0	3	96	48	0
STR	23	0	4
SUL	23	0	4	96	48	7
TAP	23	48	0
TAP	23	48	7
STR	23	192	0
SI_	23	192	0	96	32	2
HLD	23	240	4	32
STR	23	288	0
SI_	23	288	0	96	32	6
HLD	23	288	5	32
HLD	23	336	4	32
STR	24	0	0
SI_	24	0	0	96	32	2
HLD	24	0	3	32
HLD	24	48	4	32
STR	24	96	0
SCL	24	96	0	96	96	1
HLD	24	96	5	32
HLD	24	144	4	32
TAP	24	192	3
XTP	24	336	0
XTP	24	336	7
XTP	24	368	0
XTP	24	368	7
TAP	25	32	1
TAP	25	32	6
TAP	25	80	3
STR	25	96	4
SCR	25	96	4	96	240	3
TAP	25	144	2
TAP	25	144	5
TTP	25	192	0	C	1	M1
XTP	26	128	0
XTP	26	144	7
TAP	26	192	2
TAP	26	224	2
TAP	26	240	3
TAP	26	272	3
TAP	26	288	4
TAP	26	320	4
TAP	26	336	5
TAP	26	368	5
TAP	27	0	4
TAP	27	32	4
TAP	27	48	3
TAP	27	80	3
STR	27	96	2
SXR	27	96	2	96	192	4
TAP	27	128	2
TAP	27	144	3
TTP	28	0	6	B	0	M1
TTP	28	0	7	B	0	M1
TTP	28	0	7	E	0	M1
TAP	28	80	3
TAP	28	80	4
TAP	28	128	3
TAP	28	144	4
HLD	28	192	3	32
HLD	28	192	5	32
HLD	28	240	2	32
HLD	28	240	4	32
HLD	28	288	3	32
HLD	28	288	5	32
HLD	28	336	0	32
HLD	28	336	6	32
HLD	29	0	1	32
HLD	29	0	7	32
STR	29	48	0
SI_	29	48	0	96	32	4
HLD	29	48	6	32
HLD	29	96	1	32
HLD	29	96	7	32
XTP	29	144	0
XTP	29	144	6
STR	29	192	5
SSR	29	192	5	96	96	1
TAP	29	240	3
TAP	29	240	7
TAP	29	288	1
TAP	29	336	0
STR	30	0	0
SI_	30	0	0	96	32	4
TAP	30	48	1
TAP	30	48	7
TAP	30	96	0
TAP	30	96	4
TAP	30	176	5
TAP	30	192	4
TAP	30	224	6
TAP	30	240	7
TAP	30	272	1
TAP	30	272	5
STR	30	288	1
SI_	30	288	1	96	32	4
STR	30	288	5
SI_	30	288	5	96	32	0
TAP	30	336	2
TAP	30	336	6
STR	31	0	1
SCL	31	0	1	96	32	6
STR	31	0	5
SCL	31	0	5	96	32	2
TAP	31	96	1
TAP	31	96	5
STR	31	192	6
SSR	31	192	6	96	96	2
TAP	31	240	0
TAP	31	240	4
TAP	31	288	1
TAP	31	336	1
TAP	32	0	0
TAP	32	48	0
TAP	32	80	1
STR	32	96	3
SXR	32	96	3	96	144	7
TAP	32	128	6
TAP	32	144	4
TTP	32	192	0	C	1	M1
XTP	33	0	0
XTP	33	8	1
XTP	33	16	2
XTP	33	24	3
XTP	33	32	4
XTP	33	40	5
XTP	33	48	6
XTP	33	56	7
XTP	33	64	0
XTP	33	72	1
XTP	33	80	2
XTP	33	88	3
XST	33	96	4
SCL	33	96	4	96	32	0
TAP	33	144	6
STR	33	192	7
SI_	33	192	7	96	32	3
TAP	33	240	7
HLD	33	288	2	32
STR	33	288	7
SXR	33	288	7	96	32	5
TAP	33	336	2
HLD	34	0	3	32
STR	34	0	7
SXL	34	0	7	96	32	1
TAP	34	48	3
HLD	34	96	4	32
TAP	34	144	4
STR	34	192	3
SI_	34	192	3	96	32	7
TAP	34	240	3
STR	34	288	3
SXR	34	288	3	96	96	0
HLD	34	288	6	32
TAP	34	336	6
HLD	35	0	7	32
XTP	35	48	7
TAP	35	128	1
TAP	35	128	6
TAP	35	144	1
TAP	35	144	6
STR	35	192	2
SI_	35	192	2	96	32	5
TAP	35	240	5
TAP	35	272	6
TAP	35	288	2
TAP	35	320	7
TAP	35	336	7
TAP	35	368	4
TAP	36	0	4
TAP	36	32	1
TAP	36	48	3
TAP	36	80	6
TAP	36	96	4
XTP	36	128	3
XTP	36	128	7
TAP	36	176	4
TAP	36	176	5
TAP	36	208	4
TAP	36	208	5
TAP	36	240	2
TAP	36	240	4
TAP	36	272	4
TAP	36	272	6
TAP	36	304	1
TAP	36	304	3
TAP	36	336	4
TAP	36	336	5
STR	36	368	0
SXL	36	368	0	96	64	0
TAP	36	368	3
TAP	37	16	4
TAP	37	16	7
TAP	37	48	2
TAP	37	48	3
TAP	37	80	0
TAP	37	80	6
XTP	37	128	7
XTP	37	144	7
STR	37	192	5
SCR	37	192	5	96	32	0
TAP	37	224	5
STR	37	240	4
SCL	37	240	4	96	32	1
TAP	37	272	4
TAP	38	0	7
TAP	38	32	7
TAP	38	48	0
TAP	38	80	1
TAP	38	80	5
TAP	38	96	1
TAP	38	96	5
TAP	38	144	2
TAP	38	160	3
TAP	38	176	1
TAP	38	192	5
TAP	38	208	4
TAP	38	224	6
TAP	38	240	2
TAP	38	256	3
TAP	38	272	2
TAP	38	288	3
TAP	38	304	2
TAP	38	320	4
TAP	38	336	2
TAP	38	352	3
TAP	38	368	2
TAP	39	0	1
TAP	39	16	2
TAP	39	32	0
TAP	39	48	2
TAP	39	64	7
TAP	39	80	2
TAP	39	96	6
TAP	39	112	2
TAP	39	128	5
TAP	39	144	2
TAP	39	160	4
TAP	39	176	2
TAP	39	192	3
TAP	39	208	2
TAP	39	240	1
TAP	39	240	4
TAP	39	272	0
TAP	39	272	7
TAP	39	304	4
TAP	39	304	6
TAP	39	336	1
TAP	39	336	3
TAP	39	368	3
TAP	39	368	5
TAP	40	16	6
TAP	40	16	7
TAP	40	48	0
TAP	40	48	2
TAP	40	80	1
TAP	40	80	7
BRK	40	112	3
BRK	40	112	5
XHO	40	160	7	64
HLD	40	224	6	48
HLD	40	272	5	32
HLD	40	304	4	32
HLD	40	336	3	32
HLD	40	368	2	32
HLD	41	16	1	32
TAP	41	48	0
STR	41	80	0
SI_	41	80	0	96	32	4
XTP	41	112	2
XTP	41	112	4
XTP	41	144	1
XTP	41	144	5
XTP	41	176	0
XST	41	192	6
SCL	41	192	6	96	32	4
TAP	41	240	2
TAP	41	240	7
TAP	41	272	1
STR	41	288	1
SCR	41	288	1	96	32	3
TAP	41	320	0
TAP	41	336	0
TAP	41	368	6
STR	42	0	6
SI_	42	0	6	96	32	2
TAP	42	32	7
TAP	42	48	7
TAP	42	80	1
TAP	42	96	1
TAP	42	128	0
TAP	42	144	0
STR	42	192	1
SCR	42	192	1	96	32	3
TAP	42	192	4
TAP	42	240	0
TAP	42	240	5
TAP	42	272	6
STR	42	288	6
SCL	42	288	6	96	32	4
TAP	42	320	7
TAP	42	336	7
TAP	42	368	1
STR	43	0	1
SI_	43	0	1	96	32	5
TAP	43	32	0
TAP	43	48	0
TAP	43	80	7
TAP	43	96	7
TAP	43	128	6
TAP	43	144	6
TAP	43	192	0
STR	43	192	5
SCR	43	192	5	96	32	7
TAP	43	240	1
TAP	43	240	4
TAP	43	272	2
STR	43	288	2
SCL	43	288	2	96	32	0
TAP	43	320	3
TAP	43	336	3
TAP	43	368	5
STR	44	0	5
SI_	44	0	5	96	32	1
TAP	44	32	4
TAP	44	48	4
TAP	44	80	2
STR	44	96	2
SI_	44	96	2	96	32	6
TAP	44	128	3
STR	44	144	3
SI_	44	144	3	96	32	7
TAP	44	320	2
TAP	44	320	6
TAP	44	368	4
TAP	45	0	3
TAP	45	32	3
TAP	45	48	5
TAP	45	80	5
XST	45	96	1
SUR	45	96	1	96	192	3
XHO	45	128	1	256

T_REC_TAP	368
T_REC_BRK	10
T_REC_XTP	67
T_REC_HLD	52
T_REC_XHO	3
T_REC_STR	62
T_REC_BST	0
T_REC_XST	12
T_REC_TTP	15
T_REC_THO	0
T_REC_SLD	74
T_REC_ALL	663
T_NUM_TAP	524
T_NUM_BRK	10
T_NUM_HLD	55
T_NUM_SLD	74
T_NUM_ALL	663
T_JUDGE_TAP	534
T_JUDGE_HLD	134
T_JUDGE_SLD	74
T_JUDGE_ALL	742
TTM_EACHPAIRS	110
TTM_SCR_TAP	262000
TTM_SCR_BRK	26000
TTM_SCR_HLD	55000
TTM_SCR_SLD	111000
TTM_SCR_ALL	454000
TTM_SCR_S	439450
TTM_SCR_SS	453000
TTM_RAT_ACV	10022

