VERSION	0.00.00	1.03.00
FES_MODE	0
BPM_DEF	 92.500	 92.500	 92.500	 92.500
MET_DEF	4	4
RESOLUTION	384
CLK_DEF	384
COMPATIBLE_CODE	MA2

BPM	0	0	 92.500
MET	0	0	4	4

XHO	1	0	3	96
XHO	1	0	5	768
HLD	1	192	4	96
HLD	2	0	6	96
HLD	2	192	7	96
XTP	3	0	0
TAP	3	96	0
TAP	3	192	1
TAP	3	192	4
TAP	3	288	2
XTP	3	336	2
TAP	4	0	4
TAP	4	48	4
TAP	4	96	0
TAP	4	144	0
TAP	4	192	1
TAP	4	192	7
TAP	4	240	2
TAP	4	240	6
XTP	4	288	3
XTP	4	288	5
TAP	5	0	2
TAP	5	48	1
TAP	5	48	3
TAP	5	96	5
TAP	5	144	4
TAP	5	144	6
TAP	5	192	2
TAP	5	240	1
TAP	5	240	3
XTP	5	288	0
XTP	5	336	0
XTP	5	336	7
TAP	6	0	5
TAP	6	48	4
TAP	6	48	6
TAP	6	96	2
TAP	6	144	1
TAP	6	144	3
TAP	6	192	5
TAP	6	240	4
TAP	6	240	6
TAP	6	288	7
TAP	6	336	3
TAP	6	336	7
HLD	7	0	6	96
TAP	7	48	4
TAP	7	96	4
TAP	7	144	3
TAP	7	144	5
HLD	7	192	2	96
TAP	7	240	3
TAP	7	288	3
TAP	7	336	1
TAP	7	336	4
TAP	8	0	2
TAP	8	0	5
TAP	8	48	6
XTP	8	96	1
XTP	8	96	7
TAP	8	144	1
TAP	8	144	7
TAP	8	192	2
TAP	8	192	6
TAP	8	240	3
TAP	8	240	5
XTP	8	288	2
XTP	8	288	6
TAP	8	336	2
TAP	8	336	6
TAP	9	0	1
TAP	9	48	1
TAP	9	96	2
TAP	9	96	3
TAP	9	144	2
TAP	9	144	3
TAP	9	192	4
TAP	9	240	5
TAP	9	288	3
TAP	9	288	6
TAP	9	336	3
TAP	9	336	6
TAP	10	0	2
TAP	10	0	5
TAP	10	48	1
TAP	10	48	4
TAP	10	96	0
TAP	10	96	3
TAP	10	144	1
TAP	10	144	4
TAP	10	192	2
TAP	10	192	5
TAP	10	240	3
TAP	10	240	6
TAP	10	288	2
TAP	10	288	5
TAP	10	336	1
TAP	10	336	4
XTP	11	0	0
XTP	11	48	0
TAP	11	96	1
TAP	11	96	7
TAP	11	144	1
TAP	11	144	7
TAP	11	192	2
TAP	11	192	6
TAP	11	240	3
TAP	11	240	5
TAP	11	288	4
TAP	11	288	6
TAP	11	336	4
TAP	11	336	6
BRK	12	0	7
TAP	12	48	7
XTP	12	96	1
XTP	12	96	7
THO	12	192	0	96	C	1	M1
TTP	12	192	2	B	0	M1
TTP	12	192	5	B	0	M1
XTP	13	0	0
XTP	13	0	7
XTP	13	48	0
XTP	13	48	7
TAP	13	96	1
TAP	13	144	1
TAP	13	144	3
TAP	13	192	6
TAP	13	240	4
TAP	13	240	6
TAP	13	288	1
TAP	13	336	1
TAP	13	336	3
HLD	14	0	2	48
HLD	14	48	3	48
HLD	14	96	4	48
TAP	14	144	5
HLD	14	192	6	48
HLD	14	240	4	48
HLD	14	288	3	48
BRK	14	336	0
HLD	15	0	1	384
TAP	15	0	6
TAP	15	48	6
BRK	15	96	0
TAP	15	144	0
BRK	15	192	7
TAP	15	240	7
BRK	15	288	0
TAP	15	336	0
BRK	16	0	3
TAP	16	48	3
TAP	16	96	2
TAP	16	96	4
TAP	16	144	2
TAP	16	144	4
TAP	16	192	3
TAP	16	192	5
TAP	16	240	2
TAP	16	240	6
TAP	16	288	1
STR	16	288	7
SUL	16	288	7	96	96	0
TAP	17	192	0
HLD	17	192	7	96
TAP	17	240	5
HLD	17	288	0	96
TAP	17	336	2
BRK	18	0	7
BRK	18	48	1
BRK	18	48	6
BRK	18	96	2
BRK	18	96	5
TAP	18	144	3
TAP	18	144	4
TAP	18	192	3
HLD	18	192	4	96
TAP	18	240	6
HLD	18	288	3	96
TAP	18	336	1
BRK	19	0	4
BRK	19	48	2
BRK	19	48	5
BRK	19	96	1
BRK	19	96	6
BRK	19	144	0
BRK	19	144	7
TAP	19	192	0
TAP	19	240	1
TAP	19	288	2
TAP	19	288	3
STR	19	336	2
SV_	19	336	2	96	72	0
STR	19	336	3
SLR	19	336	3	96	72	7
TAP	20	0	2
TAP	20	0	3
XTP	20	192	7
TAP	20	240	6
TAP	20	288	4
TAP	20	288	5
STR	20	336	4
SLL	20	336	4	96	72	0
STR	20	336	5
SV_	20	336	5	96	72	7
TAP	21	0	4
TAP	21	0	5
HLD	21	192	1	96
TAP	21	240	3
HLD	21	288	6	96
TAP	21	336	4
HLD	22	0	2	96
TAP	22	48	3
HLD	22	96	5	96
TAP	22	144	4
HLD	22	192	3	96
TAP	22	240	2
TAP	22	288	4
TAP	22	336	5
TAP	23	0	4
TAP	23	0	5
TAP	23	48	2
TAP	23	48	6
TAP	23	96	2
TAP	23	96	6
TAP	23	144	3
HLD	23	192	2	96
TAP	23	192	4
TAP	23	240	0
HLD	23	288	3	96
TAP	23	336	0
HLD	24	0	4	96
TAP	24	48	7
HLD	24	96	5	96
TAP	24	144	7
TAP	24	192	4
TAP	24	240	5
STR	24	288	3
SLL	24	288	3	96	120	5
STR	24	288	6
SLR	24	288	6	96	120	4
TAP	25	192	3
STR	25	192	6
SXR	25	192	6	96	192	2
STR	26	192	1
SXR	26	192	1	96	168	6
TAP	26	192	3
HLD	27	192	4	192
STR	27	192	5
SCR	27	192	5	96	144	2
XTP	28	144	0
TAP	28	192	1
TAP	28	240	2
TAP	28	288	2
TAP	28	288	3
TAP	28	336	1
TAP	28	336	4
TAP	29	0	5
TAP	29	48	4
TAP	29	48	5
TAP	29	96	3
TAP	29	96	6
TAP	29	144	3
TAP	29	144	6
HLD	29	192	2	192
STR	29	192	7
SSR	29	192	7	96	120	3
TAP	30	96	3
STR	30	192	1
SSR	30	192	1	96	120	5
HLD	30	192	4	288
TAP	31	96	5
TAP	31	192	6
STR	31	192	7
SXR	31	192	7	96	192	2
STR	32	96	3
SCR	32	96	3	96	192	1
XTP	32	192	2
STR	33	96	0
SI_	33	96	0	96	48	4
BRK	33	192	5
TAP	33	240	6
TAP	33	288	3
TAP	33	288	7
TAP	33	336	3
TAP	33	336	7
TAP	34	0	2
TAP	34	48	1
TAP	34	48	3
TAP	34	96	5
TAP	34	144	4
TAP	34	144	6
BRK	34	192	3
BRK	34	192	7
TAP	34	240	3
TAP	34	240	7
TAP	34	288	4
TAP	34	288	6
TAP	34	336	5
TAP	35	0	1
TAP	35	0	3
TAP	35	48	0
TAP	35	48	4
TAP	35	96	0
TAP	35	96	4
TAP	35	144	1
TAP	35	144	5
TAP	35	192	2
TAP	35	192	6
TAP	35	240	3
TAP	35	240	5
TAP	35	288	2
TAP	35	288	6
TAP	35	336	1
TAP	35	336	5
TAP	36	0	2
TAP	36	0	4
TAP	36	48	2
TAP	36	48	4
TAP	36	96	1
TAP	36	96	5
HLD	36	144	0	48
HLD	36	192	1	48
HLD	36	240	2	48
HLD	36	288	3	48
HLD	36	336	4	48
TAP	37	0	5
TAP	37	48	6
TAP	37	96	0
STR	37	96	7
SI_	37	96	7	96	48	3
BRK	37	192	2
TAP	37	240	1
TAP	37	288	0
TAP	37	288	4
TAP	37	336	0
TAP	37	336	4
XTP	38	0	5
TAP	38	48	4
TAP	38	48	6
TAP	38	96	2
TAP	38	144	1
TAP	38	144	3
TAP	38	192	5
TAP	38	240	3
TAP	38	240	7
TAP	38	288	2
TAP	38	336	0
TAP	38	336	4
XTP	39	0	7
TAP	39	48	1
TAP	39	48	7
TAP	39	96	3
TAP	39	96	5
TAP	39	144	3
TAP	39	144	5
TAP	39	192	2
TAP	39	192	4
TAP	39	240	1
TAP	39	288	0
TAP	39	288	7
TAP	39	336	6
TAP	40	0	4
TAP	40	0	5
TAP	40	48	3
TAP	40	96	2
TAP	40	96	4
TAP	40	144	0
HLD	40	192	0	48
HLD	40	240	1	48
HLD	40	288	2	48
HLD	40	336	3	48
HLD	41	0	4	48
TAP	41	48	5
XTP	41	96	5
TAP	41	144	4
TAP	41	144	5
XTP	41	192	3
XTP	41	192	6
HLD	41	240	2	32
TAP	41	272	3
TAP	41	288	1
HLD	41	336	5	32
TAP	41	368	4
TAP	42	0	6
HLD	42	48	2	32
TAP	42	80	3
TAP	42	96	1
TAP	42	144	0
TAP	42	144	4
XTP	42	192	0
XTP	42	192	4
HLD	42	240	5	32
TAP	42	272	4
TAP	42	288	6
HLD	42	336	2	32
TAP	42	368	3
TAP	43	0	1
HLD	43	48	5	32
TAP	43	80	4
TAP	43	96	6
TAP	43	144	3
TAP	43	144	7
XTP	43	192	3
XTP	43	192	7
HLD	43	240	1	32
TAP	43	272	0
TAP	43	288	2
HLD	43	336	6	32
TAP	43	368	7
TAP	44	0	5
HLD	44	48	1	32
TAP	44	80	0
TAP	44	96	2
STR	44	144	3
SCL	44	144	3	96	48	0
STR	44	144	7
SCL	44	144	7	96	48	4
TAP	44	192	3
TAP	44	192	7
TAP	45	0	0
TAP	45	0	4
TAP	45	48	1
TAP	45	48	5
STR	45	96	2
SXR	45	96	2	96	192	4
HLD	45	96	6	96

T_REC_TAP	282
T_REC_BRK	22
T_REC_XTP	31
T_REC_HLD	48
T_REC_XHO	2
T_REC_STR	19
T_REC_BST	0
T_REC_XST	0
T_REC_TTP	2
T_REC_THO	1
T_REC_SLD	19
T_REC_ALL	426
T_NUM_TAP	334
T_NUM_BRK	22
T_NUM_HLD	51
T_NUM_SLD	19
T_NUM_ALL	426
T_JUDGE_TAP	356
T_JUDGE_HLD	210
T_JUDGE_SLD	19
T_JUDGE_ALL	585
TTM_EACHPAIRS	125
TTM_SCR_TAP	167000
TTM_SCR_BRK	57200
TTM_SCR_HLD	51000
TTM_SCR_SLD	28500
TTM_SCR_ALL	303700
TTM_SCR_S	292500
TTM_SCR_SS	301500
TTM_RAT_ACV	10072

