VERSION	0.00.00	1.03.00
FES_MODE	0
BPM_DEF	 92.500	 92.500	 92.500	 92.500
MET_DEF	4	4
RESOLUTION	384
CLK_DEF	384
COMPATIBLE_CODE	MA2

BPM	0	0	 92.500
MET	0	0	4	4

STR	1	0	1
SCR	1	0	1	96	144	5
TAP	2	0	6
TAP	2	96	6
TAP	2	192	6
TAP	2	192	7
STR	3	0	6
SCL	3	0	6	96	144	2
TAP	4	0	1
TAP	4	96	1
BRK	4	192	0
BRK	4	192	7
TAP	5	0	6
TAP	5	48	6
TAP	5	96	7
TAP	5	192	1
TAP	5	240	1
TAP	5	288	0
TAP	6	0	6
TAP	6	48	6
TAP	6	96	7
TAP	6	192	0
TAP	6	240	0
TAP	6	288	1
TAP	6	288	7
TAP	7	0	2
TAP	7	48	2
TAP	7	96	3
TAP	7	192	5
TAP	7	240	5
TAP	7	288	4
TAP	8	0	2
TAP	8	48	2
TAP	8	96	3
TAP	8	192	4
TAP	8	240	4
TAP	8	288	3
TAP	8	288	5
TTP	9	0	6	E	0	L1
TTP	9	48	5	B	0	L1
TTP	9	96	4	B	0	L1
TTP	9	192	2	E	0	L1
TTP	9	240	2	B	0	L1
TTP	9	288	3	B	0	L1
TTP	10	0	6	B	0	L1
TTP	10	48	5	B	0	L1
TTP	10	96	5	E	0	L1
TTP	10	192	1	B	0	L1
TTP	10	240	2	B	0	L1
TTP	10	288	3	E	0	L1
TTP	11	0	6	E	0	L1
TTP	11	48	6	B	0	L1
TTP	11	96	7	B	0	L1
TTP	11	192	2	E	0	L1
TTP	11	240	1	B	0	L1
TTP	11	288	0	B	0	L1
TTP	12	0	5	B	0	L1
TTP	12	48	6	B	0	L1
TTP	12	96	7	E	0	L1
TTP	12	192	2	B	0	L1
TTP	12	240	1	B	0	L1
TTP	12	288	1	E	0	L1
HLD	13	0	6	96
HLD	13	96	7	96
HLD	13	192	0	96
XTP	13	288	1
HLD	14	0	2	96
HLD	14	96	3	96
HLD	14	192	4	96
TAP	14	288	5
HLD	15	0	4	48
HLD	15	0	5	48
TAP	15	96	4
TAP	15	96	5
HLD	15	192	2	48
HLD	15	192	3	48
TAP	15	288	2
TAP	15	288	3
HLD	16	0	0	48
HLD	16	0	1	48
TAP	16	96	0
TAP	16	96	1
TAP	16	192	0
TAP	16	192	7
TAP	16	240	0
TAP	16	240	7
STR	16	288	6
SUL	16	288	6	96	48	2
BRK	17	192	1
TAP	17	240	1
TAP	17	288	0
TAP	17	336	0
XTP	18	0	6
XTP	18	0	7
XTP	18	48	6
XTP	18	48	7
XTP	18	96	6
XTP	18	96	7
TAP	18	192	5
TAP	18	240	5
TAP	18	288	4
TAP	18	336	4
XTP	19	0	2
XTP	19	0	3
XTP	19	48	2
XTP	19	48	3
XTP	19	96	2
XTP	19	96	3
TAP	19	192	1
TAP	19	240	1
TAP	19	288	0
TAP	19	336	0
TAP	20	0	0
TAP	20	0	7
TAP	20	96	7
TAP	20	144	6
TAP	20	192	5
TAP	20	240	5
TAP	20	288	4
TAP	20	336	4
TAP	21	0	3
TAP	21	0	4
TAP	21	48	3
TAP	21	48	4
TAP	21	96	2
TAP	21	96	5
STR	21	192	1
SCR	21	192	1	96	48	4
STR	22	0	5
SCR	22	0	5	96	48	0
STR	22	192	1
SUR	22	192	1	96	144	4
STR	23	192	5
SCL	23	192	5	96	48	2
STR	24	0	1
SUR	24	0	1	96	48	5
STR	24	192	6
SUL	24	192	6	96	144	3
THO	25	192	0	288	C	0	L1
TTP	26	192	7	E	0	L1
TTP	26	288	1	E	0	L1
TTP	27	0	6	B	0	L1
TTP	27	96	1	B	0	L1
THO	27	192	0	192	C	0	L1
TAP	28	192	6
TAP	28	240	6
TAP	28	288	0
TAP	28	288	7
TAP	28	336	1
TAP	29	0	1
TAP	29	48	0
TAP	29	48	7
TAP	29	96	1
TAP	29	96	6
HLD	29	192	6	96
HLD	29	288	7	96
HLD	30	0	0	96
TAP	30	96	1
HLD	30	192	2	96
HLD	30	288	3	96
HLD	31	0	4	96
TAP	31	96	5
HLD	31	192	6	96
HLD	31	288	7	96
HLD	32	0	0	96
TAP	32	96	1
TAP	32	192	2
TAP	32	240	3
TAP	32	288	4
TAP	32	336	5
TAP	33	0	6
TAP	33	48	0
TAP	33	48	7
BRK	33	96	1
BRK	33	96	6
TAP	33	192	5
TAP	33	240	5
TAP	33	288	4
TAP	33	288	5
TAP	33	336	4
TAP	33	336	5
TAP	34	0	6
TAP	34	48	7
TAP	34	96	0
TAP	34	96	6
TAP	34	192	1
TAP	34	240	1
TAP	34	288	0
TAP	34	288	1
TAP	34	336	0
TAP	34	336	1
TAP	35	0	2
TAP	35	48	3
TAP	35	96	2
TAP	35	96	4
TAP	35	192	5
TAP	35	240	5
TAP	35	288	4
TAP	35	288	5
TAP	35	336	4
TAP	35	336	5
TAP	36	0	2
TAP	36	48	2
TAP	36	96	2
TAP	36	96	3
TAP	36	144	2
TAP	36	144	3
TAP	36	192	1
TAP	36	240	1
TAP	36	288	0
TAP	36	336	0
TAP	37	0	7
TAP	37	48	0
TAP	37	48	7
TAP	37	96	1
TAP	37	96	6
TAP	37	192	2
TAP	37	240	2
TAP	37	288	2
TAP	37	288	3
TAP	37	336	2
TAP	37	336	3
TAP	38	0	1
TAP	38	48	0
TAP	38	96	1
TAP	38	96	7
TAP	38	192	6
TAP	38	240	6
TAP	38	288	6
TAP	38	288	7
TAP	38	336	6
TAP	38	336	7
TAP	39	0	5
TAP	39	48	4
TAP	39	96	3
TAP	39	96	5
TAP	39	192	2
TAP	39	240	2
TAP	39	288	2
TAP	39	288	3
TAP	39	336	2
TAP	39	336	3
TAP	40	0	5
TAP	40	48	5
TAP	40	96	4
TAP	40	96	5
TAP	40	144	4
TAP	40	144	5
TAP	40	192	6
TAP	40	240	6
TAP	40	288	7
TAP	40	336	7
TAP	41	0	0
TAP	41	48	0
TAP	41	96	1
TAP	41	96	7
HLD	41	192	2	96
TAP	41	288	3
TAP	41	336	3
TAP	42	0	4
TAP	42	48	4
TAP	42	96	3
TAP	42	96	5
HLD	42	192	6	96
TAP	42	288	7
TAP	42	336	7
TAP	43	0	0
TAP	43	48	0
TAP	43	96	1
TAP	43	96	7
HLD	43	192	1	96
TAP	43	288	0
TAP	43	336	0
TAP	44	0	7
TAP	44	48	7
TAP	44	96	0
TAP	44	96	6
HLD	44	192	5	96
TAP	44	288	4
TAP	44	336	4
TAP	45	0	3
TAP	45	0	4
TAP	45	48	2
TAP	45	48	5
HLD	45	96	1	96
HLD	45	96	6	96

T_REC_TAP	193
T_REC_BRK	5
T_REC_XTP	13
T_REC_HLD	27
T_REC_XHO	0
T_REC_STR	9
T_REC_BST	0
T_REC_XST	0
T_REC_TTP	28
T_REC_THO	2
T_REC_SLD	9
T_REC_ALL	286
T_NUM_TAP	243
T_NUM_BRK	5
T_NUM_HLD	29
T_NUM_SLD	9
T_NUM_ALL	286
T_JUDGE_TAP	248
T_JUDGE_HLD	116
T_JUDGE_SLD	9
T_JUDGE_ALL	373
TTM_EACHPAIRS	56
TTM_SCR_TAP	121500
TTM_SCR_BRK	13000
TTM_SCR_HLD	29000
TTM_SCR_SLD	13500
TTM_SCR_ALL	177000
TTM_SCR_S	171250
TTM_SCR_SS	176500
TTM_RAT_ACV	10028

