VERSION	0.00.00	1.03.00
FES_MODE	0
BPM_DEF	202.000	202.000	202.000	202.000
MET_DEF	4	4
RESOLUTION	384
CLK_DEF	384
COMPATIBLE_CODE	MA2

BPM	0	0	202.000
MET	0	0	4	4

BRK	1	300	1
TTP	1	312	0	C	1	M1
BRK	1	348	6
TTP	1	360	0	C	1	M1
BRK	2	12	0
TTP	2	24	0	C	1	M1
BRK	2	60	7
TTP	2	72	0	C	1	M1
BRK	2	108	1
TTP	2	120	0	C	1	M1
BRK	2	156	6
TTP	2	168	0	C	1	M1
BRK	2	204	0
TTP	2	210	0	B	0	M1
TTP	2	216	0	C	1	M1
TTP	2	222	4	B	0	M1
THO	4	0	0	624	C	1	M1
BRK	4	0	7
TAP	4	96	7
TAP	4	192	7
TAP	4	288	7
TAP	5	0	7
TAP	5	96	7
TAP	5	192	7
TAP	5	288	7
TAP	6	0	7
TAP	6	96	7
TAP	6	192	7
TAP	6	288	7
TAP	7	0	7
TAP	7	96	7
TAP	7	192	2
STR	7	192	7
SCL	7	192	7	96	48	4
TAP	7	288	1
TAP	7	288	7
BRK	8	0	0
THO	8	0	0	624	C	1	M1
TAP	8	96	0
TAP	8	192	0
TAP	8	288	0
TAP	9	0	0
TAP	9	96	0
TAP	9	192	0
TAP	9	288	0
TAP	10	0	0
TAP	10	96	0
TAP	10	192	0
TAP	10	288	0
TAP	11	0	0
TAP	11	96	0
STR	11	192	0
SCR	11	192	0	96	48	3
TAP	11	192	4
TAP	11	288	0
TAP	11	288	5
THO	12	0	0	624	C	1	M1
BRK	12	0	6
XTP	12	48	6
XTP	12	96	6
XTP	12	144	6
XTP	12	192	6
XTP	12	240	6
XTP	12	288	6
XTP	12	336	6
XTP	13	0	6
XTP	13	48	6
XTP	13	96	6
XTP	13	144	6
XTP	13	192	6
XTP	13	240	6
XTP	13	288	6
XTP	13	336	6
XTP	14	0	6
XTP	14	48	6
XTP	14	96	6
XTP	14	144	6
XTP	14	192	6
XTP	14	240	6
XTP	14	288	6
XTP	14	336	6
XTP	15	0	6
XTP	15	48	6
XTP	15	96	6
XTP	15	144	6
TAP	15	192	4
XTP	15	192	6
XTP	15	240	6
TAP	15	288	3
XTP	15	288	6
XTP	15	336	6
THO	16	0	0	624	C	1	M1
BRK	16	0	1
XTP	16	48	1
XTP	16	96	1
XTP	16	144	1
XTP	16	192	1
XTP	16	240	1
XTP	16	288	1
XTP	16	336	1
XTP	17	0	1
XTP	17	48	1
XTP	17	96	1
XTP	17	144	1
XTP	17	192	1
XTP	17	240	1
XTP	17	288	1
XTP	17	336	1
XTP	18	0	0
XTP	18	48	0
XTP	18	96	0
XTP	18	144	0
XTP	18	192	7
XTP	18	240	7
XTP	18	288	7
XTP	18	336	7
XTP	19	0	1
XTP	19	24	2
XTP	19	48	3
XTP	19	72	4
XTP	19	96	7
XTP	19	120	6
XTP	19	144	5
XTP	19	168	4
XTP	19	192	0
XTP	19	216	1
XTP	19	240	2
XTP	19	264	3
XTP	19	288	6
XTP	19	312	5
XTP	19	336	4
XTP	19	360	3
BRK	20	0	0
HLD	20	96	2	96
TAP	20	96	6
TAP	20	192	3
TAP	20	240	1
STR	20	240	4
SI_	20	240	4	96	48	6
STR	20	336	0
SI_	20	336	0	96	48	4
HLD	21	48	7	96
TAP	21	144	0
STR	21	192	7
SI_	21	192	7	96	48	3
TAP	21	240	7
TTP	21	288	0	C	1	M1
TAP	22	0	1
HLD	22	0	5	96
HLD	22	96	4	96
TAP	22	192	5
STR	22	240	3
SI_	22	240	3	96	48	1
TAP	22	240	6
STR	22	336	7
SI_	22	336	7	96	48	3
HLD	23	48	0	96
TAP	23	144	7
TAP	23	192	0
TAP	23	240	0
TAP	23	288	1
TAP	23	288	7
TAP	23	336	1
TAP	23	336	7
TAP	24	0	2
HLD	24	0	6	96
HLD	24	96	5	96
TAP	24	192	4
TAP	24	240	3
STR	24	240	5
SI_	24	240	5	96	48	3
STR	24	336	1
SI_	24	336	1	96	48	5
HLD	25	48	7	96
TAP	25	144	0
TAP	25	192	7
TAP	25	240	7
TAP	25	288	0
TAP	25	288	6
TAP	25	336	0
TAP	25	336	6
HLD	26	0	1	96
TAP	26	0	5
HLD	26	96	2	96
TAP	26	192	3
STR	26	240	2
SI_	26	240	2	96	48	4
TAP	26	240	4
STR	26	336	6
SI_	26	336	6	96	48	2
HLD	27	48	0	96
TAP	27	144	7
TAP	27	192	1
TAP	27	192	6
TAP	27	240	2
TAP	27	240	5
XTP	27	288	3
XTP	27	288	4
STR	28	0	0
SCR	28	0	0	96	48	3
STR	28	0	7
SCL	28	0	7	96	48	4
BRK	28	96	0
BRK	28	96	7
TAP	28	192	1
TAP	28	192	6
STR	28	240	1
SI_	28	240	1	96	48	6
TAP	28	240	6
STR	28	336	5
SI_	28	336	5	96	48	2
HLD	29	48	0	96
TAP	29	144	7
TAP	29	192	0
TAP	29	192	6
TAP	29	240	1
TAP	29	288	2
TAP	29	288	4
TAP	29	336	5
TAP	30	0	4
HLD	30	0	6	96
STR	30	96	2
SLR	30	96	2	96	96	1
TAP	30	192	4
STR	30	240	6
SI_	30	240	6	96	48	2
STR	30	336	0
SI_	30	336	0	96	48	4
HLD	31	48	7	96
TAP	31	144	0
TAP	31	192	1
TAP	31	192	7
TAP	31	240	6
TAP	31	288	3
TAP	31	288	5
TAP	31	336	2
HLD	32	0	1	96
TAP	32	0	3
STR	32	96	5
SLL	32	96	5	96	96	6
BRK	32	192	3
STR	32	240	1
SI_	32	240	1	96	48	5
STR	32	336	7
SI_	32	336	7	96	48	3
HLD	33	48	0	96
TAP	33	144	7
TAP	33	192	1
TAP	33	192	6
TAP	33	240	1
TAP	33	240	6
TAP	33	288	2
TAP	33	288	5
TAP	33	336	2
TAP	33	336	5
STR	34	0	3
SCL	34	0	3	96	48	0
STR	34	0	4
SCR	34	0	4	96	48	7
TAP	34	96	3
TAP	34	96	4
TAP	34	192	1
TAP	34	192	6
TAP	34	240	1
TAP	34	240	6
TAP	34	336	3
TAP	34	336	4
XTP	35	0	0
XTP	35	16	1
XTP	35	32	2
XTP	35	48	3
XTP	35	64	4
XTP	35	80	5
XTP	35	96	6
XTP	35	112	7
XTP	35	128	0
XTP	35	144	1
XTP	35	160	2
XTP	35	176	3
XTP	35	192	4
XTP	35	208	5
XTP	35	224	6
XTP	35	240	7
XTP	35	256	0
XTP	35	272	1
XTP	35	288	2
XTP	35	304	3
XTP	35	320	4
XTP	35	336	5
XTP	35	352	6
XTP	35	368	7
XTP	36	0	0
XTP	36	0	4
STR	36	48	0
SSL	36	48	0	96	72	4
XTP	36	48	4
BRK	36	144	0
BRK	36	144	7
TTP	36	288	0	C	1	M1
TTP	36	288	2	B	0	M1
TTP	36	288	2	E	0	M1
TTP	36	288	6	B	0	M1
TTP	36	288	6	E	0	M1
HLD	37	0	0	48
HLD	37	0	1	48
HLD	37	96	6	48
HLD	37	96	7	48
HLD	37	192	1	48
HLD	37	192	2	48
HLD	37	288	6	48
HLD	37	288	7	48
TAP	38	0	2
STR	38	0	3
SCR	38	0	3	96	48	6
TAP	38	96	0
BST	38	144	0
SI_	38	144	0	96	48	4
TAP	38	240	7
TAP	38	288	7
TAP	38	336	7
HLD	39	0	4	48
HLD	39	0	6	48
HLD	39	96	2	48
HLD	39	96	3	48
HLD	39	192	4	48
HLD	39	192	6	48
HLD	39	288	0	48
HLD	39	288	1	48
TAP	40	0	4
TAP	40	0	6
TAP	40	48	7
TAP	40	96	0
BST	40	144	1
SUR	40	144	1	96	96	6
TAP	40	144	3
TAP	40	240	7
TAP	40	288	7
TAP	40	336	7
HLD	41	0	0	96
TAP	41	96	7
TAP	41	144	0
TAP	41	192	1
TAP	41	192	6
STR	41	240	2
SCL	41	240	2	96	48	0
STR	41	240	5
SCR	41	240	5	96	48	7
TAP	41	288	3
TAP	41	288	4
BRK	41	336	2
BRK	41	336	5
TTP	42	48	0	B	0	M1
TTP	42	48	0	C	1	M1
TTP	42	48	0	E	0	M1
TTP	42	48	7	B	0	M1
TAP	42	144	2
TAP	42	144	5
TAP	42	192	2
TAP	42	192	5
STR	42	288	0
SI_	42	288	0	96	48	4
STR	42	288	7
SI_	42	288	7	96	48	5
STR	43	0	0
SI_	43	0	0	96	48	2
STR	43	0	7
SI_	43	0	7	96	48	3
STR	43	96	0
SI_	43	96	0	96	48	4
STR	43	96	7
SI_	43	96	7	96	48	5
STR	43	192	0
SI_	43	192	0	96	48	2
STR	43	192	7
SI_	43	192	7	96	48	3
BRK	43	288	0
BRK	43	288	7
XTP	44	0	4
XTP	44	0	5
XTP	44	48	4
XTP	44	48	5
XTP	44	96	4
XTP	44	96	5
BRK	44	144	3
BRK	44	144	7
TAP	44	240	1
TAP	44	240	5
TAP	44	288	2
TAP	44	336	3
HLD	45	0	4	48
HLD	45	0	5	48
HLD	45	96	2	48
HLD	45	96	3	48
HLD	45	192	5	48
HLD	45	192	6	48
HLD	45	288	2	48
HLD	45	288	3	48
TAP	46	0	6
STR	46	0	7
SCR	46	0	7	96	48	2
TAP	46	96	4
BST	46	144	4
SI_	46	144	4	96	48	0
TAP	46	240	2
TAP	46	288	2
TAP	46	336	2
HLD	47	0	1	48
HLD	47	0	3	48
HLD	47	96	6	48
HLD	47	96	7	48
HLD	47	192	1	48
HLD	47	192	3	48
HLD	47	288	4	48
HLD	47	288	5	48
TAP	48	0	1
TAP	48	0	3
TAP	48	48	0
TAP	48	96	7
TAP	48	144	4
STR	48	144	6
SI_	48	144	6	96	48	2
TAP	48	240	0
TAP	48	288	0
TAP	48	336	0
STR	49	0	1
SI_	49	0	1	96	48	3
STR	49	48	6
SI_	49	48	6	96	48	4
TAP	49	96	1
TAP	49	144	6
STR	49	192	0
SI_	49	192	0	96	48	4
STR	49	240	7
SI_	49	240	7	96	48	3
TAP	49	288	0
TAP	49	336	7
BRK	50	48	2
BRK	50	96	1
BRK	50	144	0
BRK	50	192	7
BRK	50	240	6
BRK	50	288	5
BRK	50	336	4
TTP	51	0	0	C	1	M1
BST	51	0	3
SI_	51	0	3	96	48	7
TTP	51	96	0	C	1	M1
BST	51	96	3
SF_	51	96	3	96	48	7
TTP	51	192	3	B	0	M1
TTP	51	204	0	C	1	M1
TTP	51	216	7	B	0	M1
XTP	52	0	0
XST	52	0	6
SCL	52	0	6	96	96	2
XST	52	96	2
SCL	52	96	2	96	96	6
TTP	52	192	0	C	1	M1
XST	53	0	1
SCR	53	0	1	96	96	5
XTP	53	0	7
XST	53	96	5
SCR	53	96	5	96	96	1
TTP	53	192	0	C	1	M1
XTP	54	0	2
XTP	54	0	3
XTP	54	48	1
XTP	54	48	4
XTP	54	144	4
XTP	54	144	5
XTP	54	192	3
XTP	54	192	6
XST	54	288	0
SI_	54	288	0	96	48	4
XTP	54	288	7
BRK	55	0	0
STR	55	0	6
SI_	55	0	6	96	48	2
STR	55	96	0
SF_	55	96	0	96	48	4
BRK	55	96	6
TTP	55	192	0	B	0	M1
TTP	55	204	0	C	1	M1
TTP	55	216	4	B	0	M1
TTP	56	0	3	B	0	M1
TTP	56	0	3	E	0	M1
TTP	56	0	4	B	0	M1
TTP	56	0	5	E	0	M1
THO	56	96	0	96	C	1	M1
TTP	56	192	0	B	0	M1
TTP	56	192	0	E	0	M1
TTP	56	192	1	B	0	M1
TTP	56	192	2	E	0	M1
TTP	56	192	6	B	0	M1
TTP	56	192	6	E	0	M1
TTP	56	192	7	B	0	M1
TTP	57	0	3	B	0	M1
TTP	57	0	3	E	0	M1
TTP	57	0	4	B	0	M1
TTP	57	0	5	E	0	M1
THO	57	96	0	96	C	1	M1
TTP	57	192	0	B	0	M1
TTP	57	192	0	E	0	M1
TTP	57	192	1	B	0	M1
TTP	57	192	2	E	0	M1
TTP	57	192	6	B	0	M1
TTP	57	192	6	E	0	M1
TTP	57	192	7	B	0	M1
XST	58	0	2
SI_	58	0	2	96	48	0
XST	58	0	3
SI_	58	0	3	96	48	7
XST	58	192	4
SI_	58	192	4	96	48	0
XST	58	192	5
SI_	58	192	5	96	48	7
TTP	59	0	3	B	0	M1
TTP	59	0	3	E	0	M1
TTP	59	0	4	B	0	M1
TTP	59	0	5	E	0	M1
THO	59	96	0	96	C	1	M1
TTP	59	192	0	B	0	M1
TTP	59	192	0	E	0	M1
TTP	59	192	1	B	0	M1
TTP	59	192	2	E	0	M1
TTP	59	192	6	B	0	M1
TTP	59	192	6	E	0	M1
TTP	59	192	7	B	0	M1
XTP	60	0	1
XTP	60	0	5
STR	60	96	0
SV_	60	96	0	96	48	3
STR	60	96	6
SV_	60	96	6	96	48	3
XTP	60	192	0
XTP	60	192	6
TAP	60	288	2
TAP	60	288	4
XTP	61	0	1
XTP	61	0	5
STR	61	96	0
SV_	61	96	0	96	48	3
STR	61	96	6
SV_	61	96	6	96	48	3
XTP	61	192	0
XTP	61	192	6
TAP	61	288	2
TAP	61	288	4
STR	62	0	7
SI_	62	0	7	96	48	4
SUR	62	0	7	96	48	4
STR	62	192	0
SI_	62	192	0	96	48	3
SCR	62	192	0	96	48	3
BRK	63	0	5
BRK	63	0	6
BRK	63	96	1
BRK	63	96	2
BRK	63	192	0
BST	63	192	7
SI_	63	192	7	96	48	4
SSR	63	192	7	96	48	3
XST	64	0	1
SI_	64	0	1	96	48	3
SI_	64	0	1	96	48	7
XST	64	96	1
SI_	64	96	1	96	48	5
TTP	64	192	0	C	1	M1
XST	65	0	6
SI_	65	0	6	96	48	0
SI_	65	0	6	96	48	4
XST	65	96	6
SI_	65	96	6	96	48	2
TTP	65	192	0	C	1	M1
STR	66	0	3
SI_	66	0	3	96	48	1
STR	66	0	4
SI_	66	0	4	96	48	0
STR	66	192	3
SI_	66	192	3	96	48	7
STR	66	192	4
SI_	66	192	4	96	48	6
STR	67	0	3
SXR	67	0	3	96	216	0
STR	67	0	4
SXL	67	0	4	96	216	7
TTP	67	144	0	C	1	M1
XHO	68	0	0	672
XHO	68	0	7	672
BST	70	0	0
SI_	70	0	0	96	48	4
XHO	70	0	7	48
BST	70	96	0
SI_	70	96	0	96	48	2
XHO	70	96	7	48
BST	70	192	0
SI_	70	192	0	96	48	4
XHO	70	192	7	48
BST	70	288	0
SI_	70	288	0	96	48	2
XHO	70	288	7	48
BST	71	0	0
SI_	71	0	0	96	48	4
XHO	71	0	7	48
BST	71	96	0
SI_	71	96	0	96	48	2
XHO	71	96	7	48
BST	71	192	0
SI_	71	192	0	96	48	4
XHO	71	192	5	48
BST	71	288	0
SI_	71	288	0	96	48	2
XHO	71	288	5	48
BST	72	0	0
SI_	72	0	0	96	48	4
XHO	72	0	7	48
BST	72	96	0
SI_	72	96	0	96	48	2
XHO	72	96	7	48
BST	72	192	0
SI_	72	192	0	96	48	4
XHO	72	192	7	48
BST	72	288	0
SI_	72	288	0	96	48	2
XHO	72	288	7	48
BST	73	0	0
SI_	73	0	0	96	48	4
XHO	73	0	7	48
BST	73	96	0
SI_	73	96	0	96	48	2
XHO	73	96	7	48
BST	73	192	0
SI_	73	192	0	96	48	4
XHO	73	192	7	48
BST	73	288	0
SI_	73	288	0	96	48	6
XHO	73	288	7	48
BST	74	0	0
SI_	74	0	0	96	48	4
XHO	74	0	5	48
BST	74	96	0
SI_	74	96	0	96	48	6
XHO	74	96	5	48
BST	74	192	0
SI_	74	192	0	96	48	4
XHO	74	192	5	48
BST	74	288	0
SI_	74	288	0	96	48	6
XHO	74	288	5	48
BST	75	0	0
SI_	75	0	0	96	48	4
XHO	75	0	5	48
BST	75	96	0
SCL	75	96	0	96	48	6
XHO	75	96	5	48
BST	75	192	0
SCR	75	192	0	96	48	2
XHO	75	192	5	48
BST	75	288	0
SI_	75	288	0	96	48	6
XHO	75	288	5	48
BST	76	0	0
SI_	76	0	0	96	48	2
XHO	76	0	4	48
BST	76	96	0
SI_	76	96	0	96	48	6
XHO	76	96	4	48
BST	76	192	0
SI_	76	192	0	96	48	2
XHO	76	192	4	48
BST	76	288	0
SI_	76	288	0	96	48	6
XHO	76	288	4	48
BST	77	0	0
SI_	77	0	0	96	48	2
XHO	77	0	4	48
BST	77	96	0
SI_	77	96	0	96	48	6
XHO	77	96	4	48
BST	77	192	0
SI_	77	192	0	96	48	4
XHO	77	192	5	48
BST	77	288	0
SI_	77	288	0	96	48	2
XHO	77	288	5	48
BST	78	0	0
SI_	78	0	0	96	48	4
XHO	78	0	7	48
BST	78	96	0
SI_	78	96	0	96	48	2
XHO	78	96	7	48
BST	78	192	0
SI_	78	192	0	96	48	4
XHO	78	192	7	48
BST	78	288	0
SI_	78	288	0	96	48	2
XHO	78	288	7	48
BST	79	0	0
SI_	79	0	0	96	48	4
XHO	79	0	7	48
BST	79	96	0
SI_	79	96	0	96	48	2
XHO	79	96	7	48
BST	79	192	0
SI_	79	192	0	96	48	4
XHO	79	192	7	48
BST	79	288	0
SI_	79	288	0	96	48	6
XHO	79	288	7	48
BST	80	0	0
SI_	80	0	0	96	48	4
XHO	80	0	5	48
BST	80	96	0
SI_	80	96	0	96	48	6
XHO	80	96	5	48
BST	80	192	0
SI_	80	192	0	96	48	4
XHO	80	192	5	48
BST	80	288	0
SI_	80	288	0	96	48	6
XHO	80	288	5	48
BST	81	0	0
SI_	81	0	0	96	48	4
XHO	81	0	5	48
BST	81	96	0
SCL	81	96	0	96	48	6
XHO	81	96	5	48
BST	81	192	0
SCR	81	192	0	96	48	2
XHO	81	192	5	48
BST	81	288	0
SI_	81	288	0	96	48	6
XHO	81	288	5	48
BST	82	0	0
SI_	82	0	0	96	48	2
XHO	82	0	4	48
BST	82	96	0
SI_	82	96	0	96	48	6
XHO	82	96	4	48
BST	82	192	0
SI_	82	192	0	96	48	2
XHO	82	192	4	48
BST	82	288	0
SI_	82	288	0	96	48	6
XHO	82	288	4	48
BST	83	0	0
SI_	83	0	0	96	48	2
XHO	83	0	4	48
BST	83	96	0
SI_	83	96	0	96	48	6
XHO	83	96	4	48
BST	83	192	0
SI_	83	192	0	96	48	4
XHO	83	192	5	48
BST	83	288	0
SI_	83	288	0	96	48	2
XHO	83	288	5	48
BST	84	0	0
SI_	84	0	0	96	48	4
XHO	84	0	7	48
BST	84	96	0
SI_	84	96	0	96	48	2
XHO	84	96	7	48
BST	84	192	0
SI_	84	192	0	96	48	4
XHO	84	192	7	48
BST	84	288	0
SI_	84	288	0	96	48	2
XHO	84	288	7	48
BST	85	0	0
SI_	85	0	0	96	48	4
XHO	85	0	7	48
BST	85	96	0
SI_	85	96	0	96	48	2
XHO	85	96	7	48
BST	85	192	0
SI_	85	192	0	96	48	4
XHO	85	192	7	48
BST	85	288	0
SI_	85	288	0	96	48	6
XHO	85	288	7	48
BST	86	0	0
SI_	86	0	0	96	48	4
XHO	86	0	5	48
BST	86	96	0
SI_	86	96	0	96	48	6
XHO	86	96	5	48
BST	86	192	0
SI_	86	192	0	96	48	4
XHO	86	192	5	48
BST	86	288	0
SI_	86	288	0	96	48	6
XHO	86	288	5	48
BST	87	0	0
SI_	87	0	0	96	48	4
XHO	87	0	5	48
BST	87	96	0
SCL	87	96	0	96	48	6
XHO	87	96	5	48
BST	87	192	0
SCR	87	192	0	96	48	2
XHO	87	192	5	48
BST	87	288	0
SI_	87	288	0	96	48	6
XHO	87	288	5	48
BST	88	0	0
SI_	88	0	0	96	48	2
XHO	88	0	4	48
BST	88	96	0
SI_	88	96	0	96	48	6
XHO	88	96	4	48
BST	88	192	0
SI_	88	192	0	96	48	2
XHO	88	192	4	48
BST	88	288	0
SI_	88	288	0	96	48	6
XHO	88	288	4	48
BST	89	0	0
SI_	89	0	0	96	48	2
XHO	89	0	4	48
BST	89	96	0
SI_	89	96	0	96	48	6
XHO	89	96	4	48
BST	89	192	0
SI_	89	192	0	96	48	4
XHO	89	192	5	48
BST	89	288	0
SI_	89	288	0	96	48	2
XHO	89	288	5	48
BST	90	0	0
SI_	90	0	0	96	48	4
XHO	90	0	7	48
BST	90	96	0
SI_	90	96	0	96	48	2
XHO	90	96	7	48
BST	90	192	0
SI_	90	192	0	96	48	4
XHO	90	192	7	48
BST	90	288	0
SI_	90	288	0	96	48	2
XHO	90	288	7	48
BST	91	0	0
SI_	91	0	0	96	48	4
XHO	91	0	7	48
BST	91	96	0
SI_	91	96	0	96	48	2
XHO	91	96	7	48
BST	91	192	0
SI_	91	192	0	96	48	4
XHO	91	192	7	48
BST	91	288	0
SI_	91	288	0	96	48	6
XHO	91	288	7	48
BST	92	0	0
SI_	92	0	0	96	48	4
XHO	92	0	5	48
BST	92	96	0
SI_	92	96	0	96	48	6
XHO	92	96	5	48
BST	92	192	0
SI_	92	192	0	96	48	4
XHO	92	192	5	48
BRK	92	288	0
XHO	92	288	5	48
BST	93	0	6
SI_	93	0	6	96	48	2
BST	93	0	7
SI_	93	0	7	96	48	3
TTP	93	96	0	C	1	M1
BST	93	192	0
SI_	93	192	0	96	48	4
BST	93	192	1
SI_	93	192	1	96	48	5
TTP	93	288	0	C	1	M1
TTP	94	0	0	B	0	M1
TTP	94	0	0	C	1	M1
TTP	94	0	1	B	0	M1
TTP	94	0	2	B	0	M1
TTP	94	0	3	B	0	M1
TTP	94	0	4	B	0	M1
TTP	94	0	5	B	0	M1
TTP	94	0	6	B	0	M1
TTP	94	0	7	B	0	M1
BRK	95	288	0
TAP	96	64	0
TAP	96	96	7
TAP	96	128	1
TAP	96	160	6
TAP	96	192	2
TAP	96	224	5
XHO	96	288	3	64
XHO	96	288	4	64
TAP	97	0	5
TAP	97	32	4
TAP	97	64	3
TAP	97	96	2
TAP	97	192	4
TAP	97	224	3
TAP	97	256	5
TAP	97	288	2
TAP	97	320	6
TAP	97	352	1
TAP	98	0	7
XHO	98	32	0	64
HLD	98	32	7	64
TAP	98	128	0
TAP	98	128	7
TAP	98	192	1
TAP	98	224	2
TAP	98	256	3
TAP	98	288	6
TAP	98	320	5
TAP	98	352	4
TAP	99	64	2
TAP	99	96	3
TAP	99	128	2
TAP	99	160	3
TAP	99	192	1
BRK	99	224	0
BRK	99	224	1
TAP	99	352	6
TAP	99	352	7
TAP	100	0	6
TAP	100	0	7
XTP	100	96	5
XTP	100	128	4
XTP	100	160	5
XTP	100	192	4
XTP	100	224	6
TAP	100	288	2
TAP	100	320	3
STR	100	352	1
SCL	100	352	1	96	256	5
SV_	100	352	1	96	256	3
BRK	102	24	2
BRK	102	68	1
BRK	102	112	0
BRK	102	156	7
BRK	102	200	6
BRK	102	244	5
TAP	102	352	3
TAP	103	0	4
TAP	103	32	3
TAP	103	64	4
TAP	103	96	3
TAP	103	160	2
TAP	103	160	5
TAP	103	224	1
TAP	103	224	6
TAP	103	288	0
TAP	103	320	7
TAP	103	352	0
TAP	104	0	7
TAP	104	32	0
TAP	104	72	1
TAP	104	72	6
TAP	104	128	2
TAP	104	160	4
TAP	104	224	4
TAP	104	256	3
TAP	104	288	5
TAP	104	320	1
TAP	104	352	4
TAP	105	0	1
TAP	105	32	4
TAP	105	64	3
TAP	105	96	6
TAP	105	128	3
TAP	105	160	6
TAP	105	192	0
TAP	105	192	7
TAP	105	320	3
TAP	105	320	4
TAP	105	352	3
TAP	105	352	4
TAP	106	32	1
TAP	106	64	0
TAP	106	96	1
HLD	106	128	6	64
TAP	106	192	7
TAP	106	224	6
TAP	106	320	2
TAP	106	320	5
TAP	107	0	1
TAP	107	0	3
TAP	107	64	4
TAP	107	64	6
TAP	107	128	0
TAP	107	128	7
TAP	107	160	0
TAP	107	160	7
STR	107	288	1
SI_	107	288	1	96	32	5
TAP	107	328	1
STR	107	368	6
SI_	107	368	6	96	32	2
TAP	108	24	6
STR	108	64	0
SI_	108	64	0	96	32	4
TAP	108	104	0
TAP	108	144	7
BRK	108	184	7
BRK	108	336	2
BRK	108	336	5
XTP	108	352	1
XTP	108	368	0
XTP	109	0	7
XTP	109	16	6
XTP	109	32	5
XTP	109	48	4
XTP	109	64	3
XTP	109	80	2
BRK	109	96	1
XTP	109	112	0
XTP	109	128	7
BRK	109	144	6
XTP	109	160	5
XTP	109	176	4
XTP	109	192	3
XTP	109	208	2
XTP	109	224	1
XTP	109	240	0
XTP	109	256	7
XTP	109	272	6
XST	109	288	5
SF_	109	288	5	96	48	1
XTP	109	304	4
XTP	109	320	3
XTP	109	336	2
XTP	109	352	1
XTP	109	368	0
TTP	110	0	5	B	0	M1
TTP	110	8	0	C	1	M1
TTP	110	16	1	B	0	M1

T_REC_TAP	242
T_REC_BRK	52
T_REC_XTP	152
T_REC_HLD	51
T_REC_XHO	97
T_REC_STR	59
T_REC_BST	101
T_REC_XST	14
T_REC_TTP	79
T_REC_THO	7
T_REC_SLD	180
T_REC_ALL	1034
T_NUM_TAP	546
T_NUM_BRK	153
T_NUM_HLD	155
T_NUM_SLD	180
T_NUM_ALL	1034
T_JUDGE_TAP	699
T_JUDGE_HLD	254
T_JUDGE_SLD	180
T_JUDGE_ALL	1133
TTM_EACHPAIRS	219
TTM_SCR_TAP	273000
TTM_SCR_BRK	397800
TTM_SCR_HLD	155000
TTM_SCR_SLD	270000
TTM_SCR_ALL	1095800
TTM_SCR_S	1048100
TTM_SCR_SS	1080500
TTM_RAT_ACV	10141

