VERSION	0.00.00	1.03.00
FES_MODE	0
BPM_DEF	202.000	202.000	202.000	202.000
MET_DEF	4	4
RESOLUTION	384
CLK_DEF	384
COMPATIBLE_CODE	MA2

BPM	0	0	202.000
MET	0	0	4	4

TTP	1	312	0	C	1	M1
TTP	1	360	0	C	1	M1
TTP	2	24	0	C	1	M1
TTP	2	72	0	C	1	M1
TTP	2	120	0	C	1	M1
TTP	2	168	0	C	1	M1
TTP	2	216	0	C	1	M1
HLD	4	0	4	1152
HLD	4	0	7	2688
TAP	7	192	4
XTP	8	0	3
TAP	8	96	3
TAP	8	192	3
TAP	8	288	3
TAP	9	0	4
TAP	9	96	4
TAP	9	192	4
TAP	9	288	4
TAP	10	0	3
TAP	10	96	3
TAP	10	192	2
TAP	10	288	2
TAP	11	0	1
TAP	11	96	1
TAP	11	192	0
TAP	11	288	0
XHO	12	0	0	1152
TAP	12	0	4
TAP	12	96	4
TAP	12	192	4
TAP	12	288	4
TAP	13	0	3
TAP	13	96	3
TAP	13	192	3
TAP	13	288	3
TAP	14	0	4
TAP	14	96	4
TAP	14	192	4
TAP	14	288	4
TAP	15	0	5
TAP	15	96	5
TAP	15	192	6
TAP	15	288	6
TAP	16	0	3
HLD	16	0	7	192
TAP	16	96	3
TAP	16	192	2
TAP	16	288	1
HLD	17	0	0	192
TAP	17	0	4
TAP	17	96	4
TAP	17	192	5
TAP	17	288	6
TAP	18	0	3
HLD	18	0	7	192
TAP	18	96	3
TAP	18	192	2
TAP	18	288	1
TAP	18	288	6
TAP	19	0	0
TAP	19	24	7
TAP	19	48	0
TAP	19	72	7
TAP	19	96	0
TAP	19	120	7
TAP	19	144	0
TAP	19	168	7
TAP	19	192	0
BRK	19	288	1
BRK	19	288	6
XTP	20	0	4
TAP	20	0	5
TAP	20	96	1
XTP	20	96	3
TAP	20	192	0
XTP	20	192	6
XTP	20	288	5
TAP	20	288	6
XTP	21	0	0
TAP	21	0	2
XTP	21	96	4
TAP	21	96	7
TAP	21	192	2
XTP	21	192	5
XTP	21	288	0
TAP	21	288	1
TAP	22	0	2
XTP	22	0	3
XTP	22	96	4
TAP	22	96	5
TAP	22	192	6
XTP	22	192	7
TAP	22	288	2
XTP	22	288	3
XTP	23	0	4
TAP	23	0	6
XTP	23	96	1
TAP	23	96	7
TAP	23	192	1
XTP	23	192	2
TAP	23	288	5
XTP	23	288	7
TAP	24	0	0
XTP	24	0	4
TAP	24	96	2
XTP	24	96	3
XTP	24	192	4
TAP	24	192	5
TAP	24	288	6
XTP	24	288	7
XTP	25	0	0
TAP	25	0	1
TAP	25	96	2
XTP	25	96	3
XTP	25	192	4
TAP	25	192	5
TAP	25	288	1
XTP	25	288	3
TAP	26	0	0
XTP	26	0	6
XTP	26	96	5
TAP	26	96	6
XTP	26	192	0
TAP	26	192	3
XTP	26	288	4
TAP	26	288	5
TAP	27	0	2
XTP	27	0	6
XTP	27	96	0
TAP	27	96	1
TAP	27	192	2
XTP	27	192	4
XTP	27	288	3
TAP	27	288	5
XTP	28	0	6
TAP	28	0	7
XTP	28	96	0
TAP	28	96	2
XTP	28	192	4
TAP	28	192	6
XTP	28	288	1
TAP	28	288	7
TAP	29	0	1
XTP	29	0	2
TAP	29	96	5
XTP	29	96	7
TAP	29	192	0
XTP	29	192	4
TAP	29	288	2
XTP	29	288	3
XTP	30	0	4
TAP	30	0	5
TAP	30	96	6
XTP	30	96	7
XTP	30	192	0
TAP	30	192	1
TAP	30	288	2
XTP	30	288	3
XTP	31	0	4
TAP	31	0	5
TAP	31	96	1
XTP	31	96	3
TAP	31	192	0
XTP	31	192	6
XTP	31	288	5
TAP	31	288	6
XTP	32	0	0
TAP	32	0	2
XTP	32	96	4
TAP	32	96	7
TAP	32	192	2
XTP	32	192	5
XTP	32	288	0
TAP	32	288	1
TAP	33	0	2
XTP	33	0	3
XTP	33	96	4
TAP	33	96	5
TAP	33	192	6
XTP	33	192	7
STR	33	288	3
SI_	33	288	3	96	96	0
STR	33	288	4
SI_	33	288	4	96	96	7
XTP	34	192	2
XTP	34	192	5
XTP	34	240	2
XTP	34	240	5
XTP	34	288	2
XTP	34	288	5
XTP	34	336	2
XTP	34	336	5
THO	35	48	0	192	C	1	M1
TTP	35	240	2	B	0	M1
TTP	35	240	3	B	0	M1
TTP	35	240	3	E	0	M1
TTP	35	240	4	B	0	M1
TTP	35	240	4	E	0	M1
TTP	35	240	5	B	0	M1
TTP	35	240	5	E	0	M1
XTP	36	0	0
XTP	36	0	7
XTP	36	48	0
XTP	36	48	7
BRK	36	144	1
BRK	36	144	6
TAP	36	240	7
TAP	36	288	7
HLD	37	0	2	192
TAP	37	96	3
HLD	37	192	5	192
TAP	37	288	4
TAP	38	0	2
BRK	38	96	1
BRK	38	96	4
BRK	38	144	1
BRK	38	144	4
TAP	38	240	6
TAP	38	288	6
HLD	39	0	2	192
TAP	39	96	0
HLD	39	192	5	192
TAP	39	288	7
TAP	40	0	4
BRK	40	96	3
BRK	40	96	6
BRK	40	144	3
BRK	40	144	6
TAP	40	240	1
TAP	40	288	1
HLD	41	0	7	192
TAP	41	96	5
HLD	41	192	0	96
TAP	41	288	2
STR	42	0	1
SI_	42	0	1	96	48	5
STR	42	0	3
SI_	42	0	3	96	48	7
STR	42	192	4
SI_	42	192	4	96	48	0
STR	42	192	6
SI_	42	192	6	96	48	2
STR	43	0	1
SI_	43	0	1	96	48	5
STR	43	0	3
SI_	43	0	3	96	48	7
STR	43	192	4
SI_	43	192	4	96	48	0
STR	43	192	6
SI_	43	192	6	96	48	2
XTP	44	0	1
XTP	44	0	3
XTP	44	48	1
XTP	44	48	3
XTP	44	96	0
XTP	44	96	4
XTP	44	144	0
XTP	44	144	4
TAP	44	240	5
TAP	44	288	5
TAP	45	0	3
HLD	45	0	7	192
TAP	45	96	5
HLD	45	192	4	192
TAP	45	288	5
TAP	46	0	6
BRK	46	96	3
BRK	46	96	7
BRK	46	144	3
BRK	46	144	7
TAP	46	240	5
TAP	46	288	5
HLD	47	0	0	192
TAP	47	96	2
HLD	47	192	3	192
TAP	47	288	2
TAP	48	0	1
BRK	48	96	0
BRK	48	96	4
BRK	48	144	0
BRK	48	144	4
TAP	48	240	5
HLD	48	288	5	96
HLD	49	0	7	96
HLD	49	96	0	96
HLD	49	192	2	96
TAP	49	288	5
XTP	50	48	0
XTP	50	48	7
XTP	50	96	0
XTP	50	96	7
XTP	50	144	0
XTP	50	144	7
XTP	50	192	1
XTP	50	192	6
XTP	50	240	1
XTP	50	240	6
XTP	50	288	1
XTP	50	288	6
XTP	50	336	1
XTP	50	336	6
TTP	51	0	0	C	1	M1
TTP	51	0	2	B	0	M1
TTP	51	0	5	B	0	M1
TTP	51	96	0	B	0	M1
TTP	51	96	0	C	1	M1
TTP	51	96	7	B	0	M1
TTP	51	192	0	C	1	M1
TTP	51	192	1	B	0	M1
TTP	51	192	3	B	0	M1
TTP	51	192	4	B	0	M1
TTP	51	192	6	B	0	M1
TAP	52	0	0
TAP	52	0	7
STR	52	96	2
SI_	52	96	2	96	48	7
STR	52	96	3
SI_	52	96	3	96	48	6
TAP	53	0	0
TAP	53	0	7
STR	53	96	2
SI_	53	96	2	96	48	7
STR	53	96	3
SI_	53	96	3	96	48	6
TAP	54	0	0
TAP	54	0	7
STR	54	96	4
SI_	54	96	4	96	48	1
STR	54	96	5
SI_	54	96	5	96	48	0
TAP	55	0	0
TAP	55	0	7
TAP	55	96	2
TAP	55	96	5
TTP	55	192	0	C	1	M1
TTP	55	192	3	B	0	M1
TTP	55	192	4	B	0	M1
TAP	56	0	0
TAP	56	0	7
STR	56	96	2
SI_	56	96	2	96	48	7
STR	56	96	5
SI_	56	96	5	96	48	0
TAP	57	0	0
TAP	57	0	7
STR	57	96	2
SI_	57	96	2	96	48	7
STR	57	96	5
SI_	57	96	5	96	48	0
TAP	58	0	6
TAP	58	0	7
TAP	58	96	4
TAP	58	96	5
TAP	58	192	0
TAP	58	192	1
TAP	58	288	2
TAP	58	288	3
TAP	59	0	3
TAP	59	0	4
STR	59	96	2
SI_	59	96	2	96	48	7
STR	59	96	5
SI_	59	96	5	96	48	0
TAP	60	0	2
TAP	60	0	4
STR	60	96	0
SV_	60	96	0	96	48	3
STR	60	96	6
SV_	60	96	6	96	48	3
TAP	61	0	3
TAP	61	0	4
STR	61	96	0
SSL	61	96	0	96	96	4
TAP	61	96	7
TAP	62	0	3
TAP	62	0	4
STR	62	96	0
SV_	62	96	0	96	48	3
STR	62	96	7
SI_	62	96	7	96	48	4
BRK	63	0	0
BRK	63	0	7
BRK	63	96	3
BRK	63	96	4
BRK	63	192	1
BRK	63	192	6
TAP	64	0	0
TAP	64	0	7
STR	64	96	4
SI_	64	96	4	96	48	0
STR	64	96	5
SI_	64	96	5	96	48	7
TAP	65	0	0
TAP	65	0	7
STR	65	96	2
SI_	65	96	2	96	48	0
STR	65	96	3
SI_	65	96	3	96	48	7
TAP	66	0	0
TAP	66	0	7
TAP	66	96	3
TAP	66	96	5
TAP	66	192	0
TAP	66	192	7
TAP	66	288	2
TAP	66	288	4
TAP	67	0	0
TAP	67	0	7
BRK	67	96	1
BRK	67	96	6
BRK	67	144	1
BRK	67	144	6
HLD	68	0	2	576
HLD	68	0	5	576
BRK	69	288	2
BRK	69	288	5
BRK	70	0	1
XST	70	0	3
SI_	70	0	3	96	48	6
XST	70	96	4
SI_	70	96	4	96	48	1
XST	70	192	2
SI_	70	192	2	96	48	7
XST	70	288	5
SI_	70	288	5	96	48	0
XST	71	0	3
SI_	71	0	3	96	48	6
XST	71	96	4
SI_	71	96	4	96	48	1
XST	71	192	2
SI_	71	192	2	96	48	7
XST	71	288	5
SI_	71	288	5	96	48	0
XST	72	0	3
SI_	72	0	3	96	48	6
XST	72	96	4
SI_	72	96	4	96	48	1
XST	72	192	2
SI_	72	192	2	96	48	7
XST	72	288	5
SI_	72	288	5	96	48	0
XST	73	0	3
SI_	73	0	3	96	48	6
XST	73	96	4
SI_	73	96	4	96	48	1
XST	73	192	2
SI_	73	192	2	96	48	7
XST	73	288	5
SI_	73	288	5	96	48	0
XST	74	0	3
SI_	74	0	3	96	48	6
XST	74	96	4
SI_	74	96	4	96	48	1
XST	74	192	2
SI_	74	192	2	96	48	7
XST	74	288	5
SI_	74	288	5	96	48	0
XST	75	0	3
SI_	75	0	3	96	48	6
XST	75	96	4
SI_	75	96	4	96	48	1
XST	75	192	2
SI_	75	192	2	96	48	7
XST	75	288	5
SI_	75	288	5	96	48	0
XST	76	0	3
SI_	76	0	3	96	48	6
XST	76	96	4
SI_	76	96	4	96	48	1
XST	76	192	2
SI_	76	192	2	96	48	7
XST	76	288	5
SI_	76	288	5	96	48	0
XST	77	0	3
SI_	77	0	3	96	48	6
XST	77	96	4
SI_	77	96	4	96	48	1
XTP	77	192	2
XTP	77	288	3
XST	78	0	4
SI_	78	0	4	96	48	1
BRK	78	0	6
XST	78	96	3
SI_	78	96	3	96	48	6
XST	78	192	5
SI_	78	192	5	96	48	0
XST	78	288	2
SI_	78	288	2	96	48	7
XST	79	0	4
SI_	79	0	4	96	48	1
XST	79	96	3
SI_	79	96	3	96	48	6
XST	79	192	5
SI_	79	192	5	96	48	0
XST	79	288	2
SI_	79	288	2	96	48	7
XST	80	0	4
SI_	80	0	4	96	48	1
XST	80	96	3
SI_	80	96	3	96	48	6
XST	80	192	5
SI_	80	192	5	96	48	0
XST	80	288	2
SI_	80	288	2	96	48	7
XST	81	0	4
SI_	81	0	4	96	48	1
XST	81	96	3
SI_	81	96	3	96	48	6
XST	81	192	5
SI_	81	192	5	96	48	0
XST	81	288	2
SI_	81	288	2	96	48	7
XST	82	0	4
SI_	82	0	4	96	48	1
XST	82	96	3
SI_	82	96	3	96	48	6
XST	82	192	5
SI_	82	192	5	96	48	0
XST	82	288	2
SI_	82	288	2	96	48	7
XST	83	0	4
SI_	83	0	4	96	48	1
XST	83	96	3
SI_	83	96	3	96	48	6
XTP	83	192	5
XHO	83	288	2	96
XTP	83	288	4
XST	84	0	0
SI_	84	0	0	96	48	5
XST	84	96	4
SI_	84	96	4	96	48	1
XST	84	192	3
SI_	84	192	3	96	48	6
XST	84	288	7
SI_	84	288	7	96	48	2
XST	85	0	0
SI_	85	0	0	96	48	5
XST	85	96	4
SI_	85	96	4	96	48	1
XST	85	192	3
SI_	85	192	3	96	48	6
XST	85	288	7
SI_	85	288	7	96	48	2
XST	86	0	0
SI_	86	0	0	96	48	5
XST	86	96	4
SI_	86	96	4	96	48	1
XST	86	192	3
SI_	86	192	3	96	48	6
XST	86	288	7
SI_	86	288	7	96	48	2
XST	87	0	0
SI_	87	0	0	96	48	5
XST	87	96	4
SI_	87	96	4	96	48	1
XST	87	192	3
SI_	87	192	3	96	48	6
XST	87	288	7
SI_	87	288	7	96	48	2
XST	88	0	0
SI_	88	0	0	96	48	5
XST	88	96	4
SI_	88	96	4	96	48	1
XST	88	192	3
SI_	88	192	3	96	48	6
XST	88	288	7
SI_	88	288	7	96	48	2
XST	89	0	0
SI_	89	0	0	96	48	5
XST	89	96	4
SI_	89	96	4	96	48	1
XTP	89	192	3
XTP	89	288	4
HLD	89	288	5	96
XST	90	0	7
SI_	90	0	7	96	48	2
XST	90	96	3
SI_	90	96	3	96	48	6
XST	90	192	4
SI_	90	192	4	96	48	1
XST	90	288	0
SI_	90	288	0	96	48	5
XST	91	0	7
SI_	91	0	7	96	48	2
XST	91	96	3
SI_	91	96	3	96	48	6
XST	91	192	4
SI_	91	192	4	96	48	1
XST	91	288	0
SI_	91	288	0	96	48	5
XST	92	0	7
SI_	92	0	7	96	48	2
XST	92	96	3
SI_	92	96	3	96	48	6
XST	92	192	4
SI_	92	192	4	96	48	1
XST	92	288	0
SI_	92	288	0	96	48	5
XHO	93	0	7	288
XHO	93	192	0	96
TTP	94	0	0	C	1	M1
TTP	94	0	2	B	0	M1
TTP	94	0	3	B	0	M1
TTP	94	0	4	B	0	M1
TTP	94	0	5	B	0	M1
TAP	95	0	0
XTP	95	0	7
XTP	95	96	3
TAP	95	96	5
TAP	95	192	1
XTP	95	192	2
TAP	95	288	4
XTP	95	288	6
TAP	96	0	0
XTP	96	0	7
XTP	96	96	1
TAP	96	96	3
TAP	96	192	4
XTP	96	192	5
XTP	96	288	0
TAP	96	288	6
TAP	97	0	2
XTP	97	0	3
XTP	97	96	5
TAP	97	96	6
TAP	97	192	1
XTP	97	192	3
XTP	97	288	5
TAP	97	288	7
TAP	98	0	3
TAP	98	0	4
TAP	98	96	2
TAP	98	96	5
TAP	98	192	1
TAP	98	192	6
TAP	98	288	0
TAP	98	288	7
BRK	99	0	0
BRK	99	0	6
BRK	99	48	0
BRK	99	48	6
BRK	99	96	0
BRK	99	96	6
BRK	99	144	0
BRK	99	144	6
BRK	99	192	0
BRK	99	192	6
BRK	99	240	0
BRK	99	240	6
BRK	99	288	0
BRK	99	288	6
XTP	100	0	1
XTP	100	0	7
XTP	100	48	1
XTP	100	48	7
XTP	100	96	1
XTP	100	96	7
XTP	100	144	1
XTP	100	144	7
XTP	100	192	1
XTP	100	192	7
XTP	100	240	1
XTP	100	240	7
XTP	100	288	1
XTP	100	288	7
TAP	101	0	6
TAP	101	48	6
TAP	101	96	3
TAP	101	144	3
TAP	101	192	4
TAP	101	240	4
TAP	101	288	1
TAP	101	336	1
BRK	102	0	5
BRK	102	48	5
BRK	102	96	2
BRK	102	144	2
BRK	102	192	4
BRK	102	240	4
BRK	102	288	3
STR	103	0	0
SI_	103	0	0	96	48	3
STR	103	0	7
SI_	103	0	7	96	48	4
STR	103	192	0
SI_	103	192	0	96	48	3
STR	103	192	7
SI_	103	192	7	96	48	4
STR	104	0	0
SI_	104	0	0	96	48	2
STR	104	0	7
SI_	104	0	7	96	48	3
STR	104	192	0
SI_	104	192	0	96	48	4
STR	104	192	7
SI_	104	192	7	96	48	5
TAP	105	0	2
TAP	105	48	2
TAP	105	96	2
TAP	105	144	2
TAP	105	192	2
TAP	105	192	3
TAP	105	240	2
TAP	105	240	3
TAP	105	288	2
TAP	105	288	3
TAP	106	0	5
TAP	106	48	5
TAP	106	96	5
TAP	106	144	5
TAP	106	192	4
TAP	106	192	5
TAP	106	240	4
TAP	106	240	5
TAP	106	288	4
TAP	106	288	5
TAP	107	0	6
TAP	107	48	6
TAP	107	96	4
TAP	107	144	4
TAP	107	192	7
TAP	107	240	7
TAP	107	288	3
TAP	107	336	3
TAP	108	0	4
TAP	108	48	4
TAP	108	96	1
TAP	108	144	1
TAP	108	192	3
TAP	108	240	3
TAP	108	288	0
TAP	108	336	0
TAP	109	0	5
TAP	109	48	5
TAP	109	96	1
TAP	109	144	1
TAP	109	192	7
TAP	109	240	7
TAP	109	288	0
TTP	110	0	0	C	1	M1
TTP	110	0	1	B	0	M1
TTP	110	0	2	B	0	M1
TTP	110	0	5	B	0	M1
TTP	110	0	6	B	0	M1

T_REC_TAP	252
T_REC_BRK	55
T_REC_XTP	122
T_REC_HLD	22
T_REC_XHO	4
T_REC_STR	39
T_REC_BST	0
T_REC_XST	86
T_REC_TTP	38
T_REC_THO	1
T_REC_SLD	125
T_REC_ALL	744
T_NUM_TAP	537
T_NUM_BRK	55
T_NUM_HLD	27
T_NUM_SLD	125
T_NUM_ALL	744
T_JUDGE_TAP	592
T_JUDGE_HLD	202
T_JUDGE_SLD	125
T_JUDGE_ALL	919
TTM_EACHPAIRS	178
TTM_SCR_TAP	268500
TTM_SCR_BRK	143000
TTM_SCR_HLD	27000
TTM_SCR_SLD	187500
TTM_SCR_ALL	626000
TTM_SCR_S	601900
TTM_SCR_SS	620500
TTM_RAT_ACV	10088

