VERSION	0.00.00	1.03.00
FES_MODE	0
BPM_DEF	202.000	202.000	202.000	202.000
MET_DEF	4	4
RESOLUTION	384
CLK_DEF	384
COMPATIBLE_CODE	MA2

BPM	0	0	202.000
MET	0	0	4	4

TTP	1	288	0	C	1	L1
TTP	1	288	2	B	0	L1
TTP	1	288	5	B	0	L1
BST	4	0	1
SLR	4	0	1	96	384	0
BST	4	0	6
SLL	4	0	6	96	384	7
TAP	6	0	7
TAP	6	192	7
TAP	7	0	6
TAP	7	192	5
BST	8	0	1
SLR	8	0	1	96	384	0
BST	8	0	6
SLL	8	0	6	96	384	7
TAP	10	0	0
TAP	10	192	0
TAP	11	0	1
TAP	11	192	2
TAP	11	192	4
HLD	12	0	5	192
TAP	12	192	4
HLD	13	0	2	192
TAP	13	192	3
HLD	14	0	5	192
TAP	14	192	4
HLD	15	0	2	96
HLD	15	0	3	96
TAP	15	192	2
TAP	15	192	3
BRK	16	0	1
TAP	16	96	0
TAP	16	192	7
TAP	16	288	6
TAP	17	0	5
TAP	17	96	4
TAP	17	192	3
TAP	17	288	2
TAP	18	0	4
TAP	18	48	4
TAP	18	96	4
TAP	18	192	3
TAP	18	240	3
TAP	18	288	3
TAP	19	0	2
TAP	19	0	4
TAP	19	48	2
TAP	19	48	4
TAP	19	96	2
TAP	19	96	4
BRK	19	192	1
BRK	19	192	5
TAP	20	0	6
TAP	20	96	6
TAP	20	192	7
TAP	20	288	7
TAP	21	0	0
TAP	21	96	0
TAP	21	192	1
TAP	21	192	7
TAP	22	0	2
TAP	22	96	2
TAP	22	192	3
TAP	22	288	3
TAP	23	0	4
TAP	23	96	4
TAP	23	192	3
TAP	23	192	5
TAP	24	0	5
TAP	24	96	5
TAP	24	192	4
TAP	24	288	4
TAP	25	0	3
TAP	25	96	3
TAP	25	192	2
TAP	25	192	4
TAP	26	0	2
TAP	26	96	2
TAP	26	192	3
TAP	26	288	3
TAP	27	0	4
TAP	27	96	3
TAP	27	96	4
TAP	27	192	2
TAP	27	192	5
TAP	28	0	6
TAP	28	96	6
TAP	28	192	7
TAP	28	288	7
TAP	29	0	6
TAP	29	0	7
TAP	29	96	6
TAP	29	96	7
TAP	29	192	0
TAP	29	192	5
TAP	30	0	1
TAP	30	96	1
TAP	30	192	0
TAP	30	288	0
TAP	31	0	0
TAP	31	0	1
TAP	31	96	0
TAP	31	96	1
TAP	31	192	2
TAP	31	192	7
TAP	32	0	2
TAP	32	96	2
TAP	32	192	3
TAP	32	288	3
TAP	33	0	2
TAP	33	0	3
TAP	33	96	2
TAP	33	96	3
TAP	33	192	1
TAP	33	192	4
TAP	34	0	5
TAP	34	96	5
TAP	34	192	4
TAP	34	288	4
TAP	35	0	3
TAP	35	0	4
TAP	35	96	3
TAP	35	96	4
TAP	35	192	2
TAP	35	192	5
BST	36	0	5
SI_	36	0	5	96	192	0
TAP	37	0	1
TAP	37	96	1
TAP	37	192	0
TAP	37	192	1
BST	38	0	2
SI_	38	0	2	96	192	7
TAP	39	0	6
TAP	39	96	6
TAP	39	192	6
TAP	39	192	7
BST	40	0	5
SI_	40	0	5	96	192	0
TAP	41	0	1
TAP	41	96	1
TAP	41	192	0
TAP	41	192	1
TAP	42	0	6
TAP	42	96	6
TAP	42	192	7
TAP	42	288	7
TAP	43	0	0
TAP	43	96	0
TAP	43	192	1
TAP	43	192	7
BST	44	0	6
SI_	44	0	6	96	192	3
TAP	45	0	2
TAP	45	96	2
TAP	45	192	2
TAP	45	192	3
BST	46	0	1
SI_	46	0	1	96	192	4
TAP	47	0	5
TAP	47	96	5
TAP	47	192	4
TAP	47	192	5
BST	48	0	6
SI_	48	0	6	96	192	3
TAP	49	0	2
TAP	49	96	2
TAP	49	192	2
TAP	49	192	3
TAP	50	0	5
TAP	50	96	5
TAP	50	192	4
TAP	50	288	4
BRK	51	0	3
BRK	51	0	4
BRK	51	96	2
BRK	51	96	5
BRK	51	192	1
BRK	51	192	6
TTP	52	0	6	B	0	L1
TTP	52	0	7	B	0	L1
TTP	52	192	0	B	0	L1
TTP	52	192	1	B	0	L1
TTP	53	0	2	B	0	L1
TTP	53	0	3	B	0	L1
TTP	53	192	4	B	0	L1
TTP	53	192	5	B	0	L1
TTP	54	0	6	E	0	L1
TTP	54	96	6	B	0	L1
TTP	54	192	7	B	0	L1
TTP	55	0	2	E	0	L1
TTP	55	96	2	B	0	L1
TTP	55	192	0	C	1	L1
TTP	56	0	4	B	0	L1
TTP	56	0	5	B	0	L1
TTP	56	192	6	B	0	L1
TTP	56	192	7	B	0	L1
TTP	57	0	0	B	0	L1
TTP	57	0	1	B	0	L1
TTP	57	192	2	B	0	L1
TTP	57	192	3	B	0	L1
TTP	58	0	6	E	0	L1
TTP	58	96	5	B	0	L1
TTP	58	192	4	B	0	L1
TTP	59	0	2	E	0	L1
TTP	59	96	1	B	0	L1
TTP	59	192	0	B	0	L1
XHO	60	0	6	96
XHO	60	0	7	96
BRK	60	192	6
BRK	60	192	7
HLD	61	0	0	96
HLD	61	0	1	96
BRK	61	192	0
BRK	61	192	1
HLD	62	0	6	96
HLD	62	0	7	96
HLD	62	192	0	96
HLD	62	192	1	96
BRK	63	0	7
BRK	63	96	7
BRK	63	192	0
BRK	63	192	6
HLD	64	0	4	96
HLD	64	0	5	96
BRK	64	192	4
BRK	64	192	5
HLD	65	0	2	96
HLD	65	0	3	96
BRK	65	192	2
BRK	65	192	3
HLD	66	0	4	96
HLD	66	0	5	96
HLD	66	192	2	96
HLD	66	192	3	96
TAP	67	0	4
TAP	67	96	3
TAP	67	96	4
TAP	67	192	2
TAP	67	192	5
STR	68	0	3
SI_	68	0	3	96	192	0
STR	68	0	4
SI_	68	0	4	96	192	7
BRK	70	0	6
TAP	70	96	6
TAP	70	192	6
TAP	70	192	7
TAP	70	288	6
TAP	70	288	7
TAP	71	0	5
TAP	71	96	5
TAP	71	192	4
TAP	71	192	5
TAP	71	288	4
TAP	71	288	5
BRK	72	0	2
TAP	72	96	2
TAP	72	192	2
TAP	72	192	3
TAP	72	288	2
TAP	72	288	3
TAP	73	0	1
TAP	73	96	1
TAP	73	192	0
TAP	73	192	1
TAP	73	288	0
TAP	73	288	1
TAP	74	0	7
TAP	74	96	7
TAP	74	192	6
TAP	74	288	6
TAP	75	0	5
TAP	75	96	4
TAP	75	192	3
TAP	75	288	2
BRK	76	0	1
TAP	76	96	1
TAP	76	192	0
TAP	76	192	1
TAP	76	288	0
TAP	76	288	1
TAP	77	0	2
TAP	77	96	2
TAP	77	192	2
TAP	77	192	3
TAP	77	288	2
TAP	77	288	3
BRK	78	0	5
TAP	78	96	5
TAP	78	192	4
TAP	78	192	5
TAP	78	288	4
TAP	78	288	5
TAP	79	0	6
TAP	79	96	6
TAP	79	192	6
TAP	79	192	7
TAP	79	288	6
TAP	79	288	7
TAP	80	0	0
TAP	80	96	0
TAP	80	192	1
TAP	80	288	1
TAP	81	0	2
TAP	81	96	3
TAP	81	192	4
TAP	81	288	5
BRK	82	0	6
TAP	82	96	6
TAP	82	96	7
TAP	82	192	6
TAP	82	288	6
TAP	82	288	7
TAP	83	0	5
TAP	83	96	4
TAP	83	96	5
TAP	83	192	5
TAP	83	288	4
TAP	83	288	5
BRK	84	0	2
TAP	84	96	2
TAP	84	96	3
TAP	84	192	2
TAP	84	288	2
TAP	84	288	3
TAP	85	0	1
TAP	85	96	0
TAP	85	96	1
TAP	85	192	1
TAP	85	288	0
TAP	85	288	1
TAP	86	0	7
TAP	86	96	6
TAP	86	192	5
TAP	86	288	4
TAP	87	0	3
TAP	87	96	2
TAP	87	192	1
TAP	87	288	0
BRK	88	0	6
TAP	88	96	6
TAP	88	96	7
TAP	88	192	6
TAP	88	288	6
TAP	88	288	7
TAP	89	0	5
TAP	89	96	4
TAP	89	96	5
TAP	89	192	5
TAP	89	288	4
TAP	89	288	5
BRK	90	0	2
TAP	90	96	2
TAP	90	96	3
TAP	90	192	2
TAP	90	288	2
TAP	90	288	3
TAP	91	0	1
TAP	91	96	0
TAP	91	96	1
TAP	91	192	1
TAP	91	288	0
TAP	91	288	1
TAP	92	0	7
TAP	92	96	6
TAP	92	192	5
TAP	92	288	4
TAP	93	0	3
TAP	93	0	4
TAP	93	48	3
TAP	93	48	4
TAP	93	96	3
TAP	93	96	4
TAP	93	192	2
TAP	93	192	5
TAP	93	240	2
TAP	93	240	5
TAP	93	288	2
TAP	93	288	5
BRK	94	0	1
TAP	94	96	1
TAP	94	192	0
TAP	94	192	1
TAP	95	0	6
TAP	95	96	6
TAP	95	192	6
TAP	95	192	7
TAP	96	0	1
TAP	96	96	1
TAP	96	192	0
TAP	96	288	0
TAP	97	0	7
TAP	97	96	7
TAP	97	192	0
TAP	97	192	6
TAP	98	0	5
TAP	98	96	5
TAP	98	192	4
TAP	98	192	5
TAP	99	0	2
TAP	99	96	2
TAP	99	192	2
TAP	99	192	3
TAP	100	0	5
TAP	100	96	5
TAP	100	192	4
TAP	100	288	4
TAP	101	0	3
TAP	101	96	3
TAP	101	192	2
TAP	101	192	4
TAP	102	0	1
TAP	102	96	1
TAP	102	192	0
TAP	102	192	1
TAP	103	0	6
TAP	103	96	6
TAP	103	192	6
TAP	103	192	7
TAP	104	0	1
TAP	104	96	1
TAP	104	192	0
TAP	104	288	0
TAP	105	0	7
TAP	105	96	7
TAP	105	192	0
TAP	105	192	6
TAP	106	0	5
TAP	106	96	5
TAP	106	192	4
TAP	106	192	5
TAP	107	0	2
TAP	107	96	2
TAP	107	192	2
TAP	107	192	3
TAP	108	0	5
TAP	108	96	4
TAP	108	192	3
TAP	108	288	2
TAP	109	0	3
TAP	109	0	4
TAP	109	48	3
TAP	109	48	4
TAP	109	96	3
TAP	109	96	4
TAP	109	192	2
TAP	109	192	5
TAP	109	240	2
TAP	109	240	5
TAP	109	288	2
TAP	109	288	5
TTP	110	0	0	B	0	L1
TTP	110	0	0	C	1	L1
TTP	110	0	7	B	0	L1

T_REC_TAP	346
T_REC_BRK	30
T_REC_XTP	0
T_REC_HLD	19
T_REC_XHO	2
T_REC_STR	2
T_REC_BST	10
T_REC_XST	0
T_REC_TTP	34
T_REC_THO	0
T_REC_SLD	12
T_REC_ALL	455
T_NUM_TAP	382
T_NUM_BRK	40
T_NUM_HLD	21
T_NUM_SLD	12
T_NUM_ALL	455
T_JUDGE_TAP	422
T_JUDGE_HLD	48
T_JUDGE_SLD	12
T_JUDGE_ALL	482
TTM_EACHPAIRS	107
TTM_SCR_TAP	191000
TTM_SCR_BRK	104000
TTM_SCR_HLD	21000
TTM_SCR_SLD	18000
TTM_SCR_ALL	334000
TTM_SCR_S	320100
TTM_SCR_SS	330000
TTM_RAT_ACV	10121

