VERSION	0.00.00	1.03.00
FES_MODE	0
BPM_DEF	202.000	202.000	202.000	202.000
MET_DEF	4	4
RESOLUTION	384
CLK_DEF	384
COMPATIBLE_CODE	MA2

BPM	0	0	202.000
MET	0	0	4	4

THO	1	312	0	216	C	1	L1
HLD	4	0	0	384
TAP	6	0	0
TAP	6	192	0
TAP	7	0	0
HLD	8	0	7	384
TAP	10	0	7
TAP	10	192	7
TAP	11	0	7
HLD	12	0	0	384
HLD	12	0	7	384
TAP	14	0	0
TAP	14	0	7
TAP	14	192	0
TAP	14	192	7
TAP	15	0	0
TAP	15	0	7
HLD	16	0	1	384
HLD	16	0	6	384
TAP	18	0	1
TAP	18	0	6
TAP	18	192	1
TAP	18	192	6
TAP	19	0	1
TAP	19	0	6
TAP	20	0	2
TAP	20	96	2
TAP	20	192	2
TAP	21	0	3
TAP	21	192	3
TAP	22	0	4
TAP	22	96	4
TAP	22	192	4
TAP	23	0	3
TAP	23	0	4
TAP	24	0	5
TAP	24	96	5
TAP	24	192	5
TAP	25	0	6
TAP	25	192	6
TAP	26	0	7
TAP	26	96	7
TAP	26	192	7
TAP	27	0	0
TAP	27	0	7
TAP	28	0	1
TAP	28	96	1
TAP	28	192	1
TAP	29	0	0
TAP	29	0	1
TAP	30	0	6
TAP	30	96	6
TAP	30	192	6
TAP	31	0	6
TAP	31	0	7
TAP	32	0	0
TAP	32	96	0
TAP	32	192	0
TAP	33	0	0
TAP	33	0	7
TAP	33	192	0
TAP	33	192	7
TAP	34	0	7
TAP	34	96	7
TAP	34	192	7
XTP	35	0	1
XTP	35	0	6
STR	36	0	0
SI_	36	0	0	96	288	3
TAP	38	0	4
TAP	38	192	4
TAP	39	0	4
STR	40	0	5
SI_	40	0	5	96	288	0
TAP	42	0	1
TAP	42	192	1
TAP	43	0	0
TAP	43	0	1
STR	44	0	2
SI_	44	0	2	96	288	6
TAP	46	0	7
TAP	46	192	7
TAP	47	0	6
TAP	47	0	7
STR	48	0	5
SI_	48	0	5	96	288	1
TAP	50	0	0
TAP	50	192	0
BRK	51	0	0
BRK	51	0	7
TTP	52	0	0	B	0	L1
TTP	52	0	7	B	0	L1
TTP	53	0	1	B	0	L1
TTP	53	0	6	B	0	L1
TTP	54	0	2	B	0	L1
TTP	54	0	5	B	0	L1
TTP	55	0	0	C	1	L1
TTP	56	0	6	B	0	L1
TTP	56	0	7	B	0	L1
TTP	57	0	4	B	0	L1
TTP	57	0	5	B	0	L1
TTP	58	0	2	B	0	L1
TTP	58	0	3	B	0	L1
TTP	59	0	0	B	0	L1
TTP	59	0	1	B	0	L1
TAP	60	0	7
TAP	60	96	7
TAP	60	192	7
TAP	61	0	6
TAP	61	96	6
TAP	61	192	6
TAP	62	0	5
TAP	62	96	5
TAP	62	192	5
XTP	63	0	3
XTP	63	0	4
TAP	64	0	2
TAP	64	96	2
TAP	64	192	2
TAP	65	0	1
TAP	65	96	1
TAP	65	192	1
TAP	66	0	0
TAP	66	96	0
TAP	66	192	0
TAP	67	0	1
TAP	67	0	7
HLD	68	0	0	384
HLD	68	0	7	384
BRK	70	0	0
TAP	70	96	0
TAP	70	192	0
TAP	70	288	0
TAP	71	0	1
TAP	71	96	1
TAP	71	192	1
TAP	72	0	2
TAP	72	96	2
TAP	72	192	2
TAP	72	288	2
TAP	73	0	3
TAP	73	96	3
TAP	73	192	3
TAP	73	192	4
TAP	74	0	5
TAP	74	96	5
TAP	74	192	5
TAP	74	288	5
TAP	75	0	6
TAP	75	96	6
TAP	75	192	6
TAP	75	192	7
TAP	76	0	0
TAP	76	96	0
TAP	76	192	0
TAP	76	288	0
TAP	77	0	7
TAP	77	96	7
TAP	77	192	0
TAP	77	192	7
TAP	78	0	6
TAP	78	96	6
TAP	78	192	5
TAP	78	288	5
TAP	79	0	4
TAP	79	96	4
TAP	79	192	3
TAP	79	192	4
TAP	80	0	2
TAP	80	96	2
TAP	80	192	1
TAP	80	288	1
TAP	81	0	0
TAP	81	96	0
TAP	81	192	0
TAP	81	192	7
STR	82	0	0
SI_	82	0	0	96	288	3
STR	82	0	7
SI_	82	0	7	96	288	4
TAP	84	0	5
TAP	84	96	5
TAP	84	192	6
TAP	84	288	6
TAP	85	0	0
TAP	85	0	7
TAP	85	96	0
TAP	85	96	7
TAP	85	192	0
TAP	85	192	7
TAP	86	0	1
TAP	86	96	1
TAP	86	192	2
TAP	86	288	2
TAP	87	0	3
TAP	87	0	4
TAP	87	96	3
TAP	87	96	4
TAP	87	192	3
TAP	87	192	4
TAP	88	0	5
TAP	88	96	5
TAP	88	192	4
TAP	88	192	5
TAP	89	0	2
TAP	89	96	2
TAP	89	192	2
TAP	89	192	3
TAP	90	0	1
TAP	90	96	1
TAP	90	192	0
TAP	90	192	1
TAP	91	0	6
TAP	91	96	6
TAP	91	192	6
TAP	91	192	7
TAP	92	0	0
TAP	92	96	0
TAP	92	192	7
TAP	92	288	7
XTP	93	0	0
XTP	93	0	7
HLD	94	0	6	192
TAP	95	0	5
TAP	95	96	5
TAP	95	192	4
TAP	95	192	5
HLD	96	0	3	192
TAP	97	0	2
TAP	97	96	2
TAP	97	192	2
TAP	97	192	3
HLD	98	0	1	192
TAP	99	0	0
TAP	99	96	0
TAP	99	192	0
HLD	100	0	7	192
XTP	101	0	0
XTP	101	0	6
XTP	101	192	0
XTP	101	192	6
TAP	102	0	1
TAP	102	96	1
TAP	102	192	1
TAP	103	0	2
TAP	103	0	3
TAP	103	192	2
TAP	103	192	3
TAP	104	0	4
TAP	104	96	4
TAP	104	192	4
TAP	105	0	5
TAP	105	0	6
TAP	105	192	5
TAP	105	192	6
TAP	106	0	7
TAP	106	96	7
TAP	106	192	7
TAP	107	0	0
TAP	107	96	0
TAP	107	192	0
TAP	108	0	0
TAP	108	0	7
TAP	108	96	0
TAP	108	96	7
TAP	108	192	1
TAP	108	192	6
TAP	108	288	1
TAP	108	288	6
TAP	109	0	2
TAP	109	0	5
TAP	109	96	2
TAP	109	96	5
TAP	109	192	3
TAP	109	192	4
TAP	109	288	3
TAP	109	288	4
BRK	110	0	2
BRK	110	0	5

T_REC_TAP	224
T_REC_BRK	5
T_REC_XTP	10
T_REC_HLD	12
T_REC_XHO	0
T_REC_STR	6
T_REC_BST	0
T_REC_XST	0
T_REC_TTP	15
T_REC_THO	1
T_REC_SLD	6
T_REC_ALL	279
T_NUM_TAP	255
T_NUM_BRK	5
T_NUM_HLD	13
T_NUM_SLD	6
T_NUM_ALL	279
T_JUDGE_TAP	260
T_JUDGE_HLD	85
T_JUDGE_SLD	6
T_JUDGE_ALL	351
TTM_EACHPAIRS	55
TTM_SCR_TAP	127500
TTM_SCR_BRK	13000
TTM_SCR_HLD	13000
TTM_SCR_SLD	9000
TTM_SCR_ALL	162500
TTM_SCR_S	157150
TTM_SCR_SS	162000
TTM_RAT_ACV	10030

