VERSION	0.00.00	1.03.00
FES_MODE	0
BPM_DEF	128.000	128.000	128.000	128.000
MET_DEF	4	4
RESOLUTION	384
CLK_DEF	384
COMPATIBLE_CODE	MA2

BPM	0	0	128.000
MET	0	0	4	4

STR	1	256	3
SUR	1	256	3	96	224	4
STR	1	256	4
SCR	1	256	4	96	224	3
XTP	2	288	1
XTP	2	288	6
TTP	2	336	3	B	0	M1
TTP	2	336	3	E	0	M1
TTP	2	336	4	B	0	M1
TTP	2	336	5	E	0	M1
BRK	3	0	0
BRK	3	0	7
TAP	3	48	1
TAP	3	96	6
TAP	3	96	7
TAP	3	144	0
TAP	3	192	5
TAP	3	192	6
TAP	3	224	0
TAP	3	240	7
TAP	3	288	4
TAP	3	288	5
TAP	3	336	6
TAP	4	0	3
TAP	4	0	4
TAP	4	48	5
TAP	4	96	2
TAP	4	96	3
TAP	4	144	4
STR	4	192	1
SI_	4	192	1	96	48	4
TAP	4	192	2
TAP	4	240	0
TAP	4	288	0
TAP	4	288	1
TAP	5	0	6
TAP	5	0	7
TAP	5	48	5
TAP	5	96	0
TAP	5	96	7
TAP	5	144	6
TAP	5	192	0
TAP	5	192	1
TAP	5	224	6
TAP	5	240	7
TAP	5	288	1
TAP	5	288	2
TAP	5	336	0
TAP	6	0	2
TAP	6	0	3
TAP	6	48	1
TAP	6	96	3
TAP	6	96	4
TAP	6	144	2
TAP	6	192	4
STR	6	192	5
SCR	6	192	5	96	48	0
XTP	6	240	1
XTP	6	288	1
TAP	7	0	1
TAP	7	0	3
TAP	7	48	2
TAP	7	96	3
TAP	7	96	4
TAP	7	144	2
TAP	7	192	1
TAP	7	192	3
TAP	7	224	0
TAP	7	240	1
TAP	7	288	2
TAP	7	288	7
TAP	7	336	6
TAP	8	0	4
TAP	8	0	5
TAP	8	48	3
TAP	8	96	2
TAP	8	96	4
TAP	8	144	3
TAP	8	192	4
TAP	8	192	6
TAP	8	224	7
TAP	8	240	6
TAP	8	288	0
TAP	8	288	5
TAP	8	336	1
TAP	9	0	2
TAP	9	0	3
TAP	9	48	4
TAP	9	96	3
TAP	9	96	5
TAP	9	144	4
TAP	9	192	1
TAP	9	192	3
TAP	9	224	0
TAP	9	240	1
TAP	9	288	2
TAP	9	288	7
TAP	9	336	6
STR	10	0	2
SXR	10	0	2	96	192	3
STR	10	0	5
SXL	10	0	5	96	192	4
STR	11	0	6
SCL	11	0	6	96	48	3
TAP	11	0	7
HLD	11	96	7	96
HLD	11	192	0	80
HLD	11	272	1	64
HLD	11	336	2	384
TAP	12	144	1
TAP	12	224	1
TAP	12	336	1
STR	13	0	0
SCL	13	0	0	96	48	5
HLD	13	96	1	96
HLD	13	192	2	80
HLD	13	272	3	64
HLD	13	336	4	336
TAP	14	144	5
TAP	14	224	5
TAP	14	288	3
TAP	14	336	2
XTP	15	0	0
XTP	15	0	1
TAP	15	48	7
TAP	15	96	0
TAP	15	96	1
TAP	15	144	2
TAP	15	192	1
TAP	15	192	4
TAP	15	240	2
TAP	15	272	3
TAP	15	288	2
TAP	15	336	1
TAP	15	336	4
TAP	16	0	0
TAP	16	48	7
TAP	16	96	4
TAP	16	144	3
TAP	16	144	5
TAP	16	192	4
TAP	16	224	3
TAP	16	240	4
TAP	16	288	3
TAP	16	288	5
TAP	16	336	0
TAP	16	368	6
TAP	17	0	7
TAP	17	48	0
TAP	17	48	1
TAP	17	96	6
TAP	17	144	5
TAP	17	192	1
TAP	17	192	4
TAP	17	240	2
TAP	17	272	3
TAP	17	288	2
HLD	17	336	1	80
TAP	17	336	4
HLD	18	32	0	64
TAP	18	96	7
STR	18	144	7
SF_	18	144	7	96	96	3
XTP	19	0	0
HLD	19	96	0	96
HLD	19	192	1	80
HLD	19	272	2	64
HLD	19	336	3	384
TTP	20	144	0	B	0	M1
TTP	20	144	1	B	0	M1
TTP	20	224	3	B	0	M1
TTP	20	224	4	B	0	M1
HLD	20	336	2	48
TAP	21	0	0
TAP	21	96	0
HLD	21	96	1	96
HLD	21	192	3	80
HLD	21	272	1	64
HLD	21	336	2	80
HLD	22	32	1	256
TTP	22	96	2	B	0	M1
TTP	22	96	3	B	0	M1
THO	22	144	0	144	C	0	M1
TAP	23	0	0
TAP	23	0	7
HLD	23	96	0	96
HLD	23	192	7	80
HLD	23	272	6	64
HLD	23	336	5	384
TTP	24	144	6	B	0	M1
TTP	24	144	7	B	0	M1
TTP	24	224	4	B	0	M1
TTP	24	224	5	B	0	M1
TAP	24	336	0
TAP	24	368	6
TAP	25	0	7
TAP	25	96	0
HLD	25	96	1	96
HLD	25	192	2	80
HLD	25	272	3	64
HLD	25	336	4	192
TTP	26	32	5	B	0	M1
TTP	26	32	6	B	0	M1
TTP	26	96	0	B	0	M1
TTP	26	96	1	B	0	M1
TAP	26	144	3
TAP	26	192	2
TAP	26	192	5
TAP	26	288	3
TAP	26	320	4
TAP	26	336	3
TAP	26	368	4
BRK	27	0	1
TAP	27	96	1
TAP	27	96	3
TAP	27	144	2
TAP	27	192	3
TAP	27	192	5
TAP	27	240	4
TAP	27	288	2
STR	27	336	1
SI_	27	336	1	96	48	3
STR	28	48	0
SI_	28	48	0	96	48	4
STR	28	144	7
SI_	28	144	7	96	48	5
TAP	28	240	0
TAP	28	288	0
TAP	28	336	2
TAP	28	336	4
TAP	29	0	2
TAP	29	0	4
TAP	29	96	3
TAP	29	144	2
TAP	29	192	5
TAP	29	240	6
TAP	29	288	2
STR	29	336	1
SI_	29	336	1	96	48	4
STR	30	48	7
SUR	30	48	7	96	48	4
TAP	30	144	1
STR	30	240	1
SI_	30	240	1	96	48	4
STR	30	240	7
SUR	30	240	7	96	48	4
TAP	31	96	2
TAP	31	144	3
TAP	31	192	4
TAP	31	192	6
TAP	31	240	5
TAP	31	288	2
TAP	31	336	2
TAP	31	336	3
TAP	32	0	4
TAP	32	48	4
TAP	32	48	5
TAP	32	96	2
TAP	32	144	1
TAP	32	144	2
TAP	32	192	5
TAP	32	240	4
TAP	32	240	6
TAP	32	288	3
TAP	32	336	2
HLD	33	0	1	96
TAP	33	48	0
HLD	33	96	6	96
TAP	33	144	7
TAP	33	192	1
TAP	33	240	2
TAP	33	288	3
TAP	33	288	4
STR	33	336	5
SCR	33	336	5	96	240	4
TAP	34	48	2
HLD	34	96	2	192
TAP	35	0	2
TAP	35	0	5
STR	35	96	0
SCL	35	96	0	96	48	5
STR	35	96	1
SCR	35	96	1	96	48	4
STR	35	192	0
SI_	35	192	0	96	48	4
STR	36	96	0
SCL	36	96	0	96	48	5
STR	36	96	1
SCR	36	96	1	96	48	4
STR	36	192	0
SI_	36	192	0	96	48	4
STR	37	0	1
SUL	37	0	1	96	192	7
STR	37	0	5
SUL	37	0	5	96	192	3
TAP	38	48	3
STR	38	96	3
SI_	38	96	3	96	48	0
HLD	38	144	3	144
XTP	38	288	7
TAP	39	0	3
TAP	39	0	6
STR	39	96	4
SCL	39	96	4	96	48	1
STR	39	96	5
SCR	39	96	5	96	48	0
STR	39	192	4
SI_	39	192	4	96	48	0
STR	40	96	4
SCL	40	96	4	96	48	1
STR	40	96	5
SCR	40	96	5	96	48	0
STR	40	192	4
SI_	40	192	4	96	48	0
HLD	41	96	0	48
TAP	41	96	7
HLD	41	192	0	48
TAP	41	192	6
TAP	41	240	7
HLD	41	288	0	48
TAP	41	288	2
TAP	41	336	1
TAP	42	0	0
TAP	42	48	3
TAP	42	48	4
STR	42	96	0
SCR	42	96	0	96	48	3
STR	42	96	7
SCL	42	96	7	96	48	4
XTP	42	192	0
XTP	42	192	7
STR	42	288	1
SI_	42	288	1	96	48	5
TAP	42	336	0
BRK	43	0	1
XST	43	0	7
SI_	43	0	7	96	48	3
TTP	43	2	0	C	1	M1
XST	43	96	1
SI_	43	96	1	96	48	5
BRK	43	96	7
TTP	43	98	0	C	1	M1
BRK	43	192	1
XTP	43	192	7
TTP	43	194	0	C	1	M1
STR	43	288	0
SUL	43	288	0	96	96	0
STR	43	288	7
SCL	43	288	7	96	96	1
TAP	43	336	0
TAP	43	336	7
XTP	44	144	3
XTP	44	144	6
TAP	44	288	3
TAP	44	288	4
TAP	44	336	0
TAP	45	0	4
TAP	45	0	6
TAP	45	48	7
TAP	45	96	3
TAP	45	96	4
TAP	45	144	0
TAP	45	192	1
TAP	45	192	3
TAP	45	240	7
TAP	45	272	0
TAP	45	288	6
TAP	45	336	2
TAP	45	336	3
TAP	46	0	0
TAP	46	0	1
TAP	46	48	6
TAP	46	48	7
STR	46	96	1
SUR	46	96	1	96	48	6
STR	46	96	5
SCL	46	96	5	96	48	2
STR	46	288	0
SI_	46	288	0	96	48	4
TAP	46	336	7
BRK	47	0	0
XST	47	0	6
SI_	47	0	6	96	48	2
TTP	47	2	0	C	1	M1
XST	47	96	0
SI_	47	96	0	96	48	4
BRK	47	96	6
TTP	47	98	0	C	1	M1
BRK	47	192	0
XTP	47	192	6
TTP	47	194	0	C	1	M1
STR	47	288	1
SXL	47	288	1	96	96	4
STR	47	288	7
SXR	47	288	7	96	96	4
TAP	47	336	0
XTP	48	144	2
XTP	48	144	6
TAP	48	288	0
TAP	48	288	7
TAP	48	336	3
TAP	49	0	5
TAP	49	0	7
TAP	49	48	4
TAP	49	96	0
TAP	49	96	7
TAP	49	144	3
TAP	49	192	0
TAP	49	192	2
TAP	49	240	1
TAP	49	272	3
TAP	49	288	2
TAP	49	336	0
HLD	49	336	5	80
TAP	50	32	7
TAP	50	48	6
TAP	50	96	0
TAP	50	96	2
TAP	50	144	4
TAP	50	144	6
XTP	50	192	1
XTP	50	192	5
STR	50	288	0
SI_	50	288	0	96	48	4
STR	50	288	7
SI_	50	288	7	96	48	5
TAP	50	336	1
BST	51	0	0
SI_	51	0	0	96	48	2
BST	51	0	7
SI_	51	0	7	96	48	3
TTP	51	2	0	C	1	M1
BST	51	96	0
SI_	51	96	0	96	48	4
BST	51	96	7
SI_	51	96	7	96	48	5
TTP	51	98	0	C	1	M1
BRK	51	192	0
BRK	51	192	7
TTP	51	194	0	C	1	M1
STR	51	288	2
SXR	51	288	2	96	96	7
STR	51	288	6
SXR	51	288	6	96	96	3
TAP	51	336	2
TAP	51	336	6
BRK	52	144	1
BRK	52	144	5
TAP	52	288	5
TAP	52	288	7
TAP	52	336	0
TAP	53	0	2
TAP	53	0	3
TAP	53	48	4
TAP	53	96	5
TAP	53	96	7
TAP	53	144	0
TAP	53	192	1
TAP	53	192	3
TAP	53	240	7
TAP	53	272	6
TAP	53	288	0
TAP	53	336	4
TAP	53	336	5
TAP	54	0	6
TAP	54	0	7
TAP	54	48	0
TAP	54	48	1
STR	54	96	2
SCR	54	96	2	96	48	5
STR	54	96	6
SUL	54	96	6	96	48	1
TAP	54	144	0
TAP	54	144	7
STR	54	288	0
SI_	54	288	0	96	48	2
STR	54	288	7
SI_	54	288	7	96	48	3
TAP	54	336	6
BST	55	0	0
SI_	55	0	0	96	48	4
BST	55	0	7
SI_	55	0	7	96	48	5
TTP	55	2	0	C	1	M1
BST	55	96	0
SI_	55	96	0	96	48	2
BST	55	96	7
SI_	55	96	7	96	48	3
TTP	55	98	0	C	1	M1
BRK	55	192	0
BRK	55	192	7
TTP	55	194	0	C	1	M1
STR	55	288	1
SXL	55	288	1	96	96	4
STR	55	288	5
SXL	55	288	5	96	96	0
TAP	55	336	1
TAP	55	336	5
BRK	56	144	2
BRK	56	144	6
TAP	56	288	0
TAP	56	288	1
TAP	56	336	2
TAP	57	0	5
TAP	57	0	6
TAP	57	48	4
TAP	57	96	1
TAP	57	96	3
TAP	57	144	7
TAP	57	192	2
STR	57	192	5
SCL	57	192	5	96	48	2
TAP	57	240	0
TAP	57	240	7
TAP	57	288	2
TAP	57	288	5
BRK	58	48	0
BRK	58	48	7
BRK	58	96	3
BRK	58	96	6
BRK	58	144	2
BRK	58	144	3
BRK	58	192	5
BRK	58	192	7
BRK	58	240	0
BRK	58	240	2
BRK	58	288	1
BRK	58	288	6
XTP	59	0	3
XTP	59	0	4
STR	59	96	0
SCL	59	96	0	96	48	5
STR	59	96	1
SCR	59	96	1	96	48	4
STR	59	192	1
SUR	59	192	1	96	48	6
HLD	59	288	7	96
TAP	60	0	0
STR	60	96	0
SCL	60	96	0	96	48	5
STR	60	96	1
SCR	60	96	1	96	48	4
STR	60	192	1
SUR	60	192	1	96	48	6
HLD	60	288	7	96
HLD	61	0	1	72
TAP	61	72	0
TAP	61	96	2
TAP	61	144	7
TAP	61	192	0
STR	61	192	7
SCL	61	192	7	96	48	4
TAP	61	240	1
STR	61	288	0
SCR	61	288	0	96	48	3
TAP	61	288	7
TAP	62	0	0
STR	62	0	7
SCL	62	0	7	96	48	4
STR	62	96	0
SCR	62	96	0	96	48	3
TAP	62	96	7
TAP	62	192	0
TAP	62	192	7
TAP	62	240	6
TAP	62	264	6
TAP	62	288	7
TAP	62	336	0
TAP	62	336	5
XTP	63	0	3
XTP	63	0	4
STR	63	96	6
SCL	63	96	6	96	48	3
STR	63	96	7
SCR	63	96	7	96	48	2
STR	63	192	6
SUL	63	192	6	96	48	1
STR	64	96	6
SCL	64	96	6	96	48	3
STR	64	96	7
SCR	64	96	7	96	48	2
STR	64	192	6
SUL	64	192	6	96	48	1
HLD	65	0	0	72
HLD	65	72	7	72
TAP	65	144	6
STR	65	192	0
SCR	65	192	0	96	48	3
TAP	65	192	7
TAP	65	240	6
TAP	65	288	0
STR	65	288	7
SCL	65	288	7	96	48	4
STR	66	0	1
SCR	66	0	1	96	48	3
TAP	66	0	7
TAP	66	96	1
STR	66	96	6
SCL	66	96	6	96	48	4
TAP	66	192	1
TAP	66	192	6
TAP	66	240	2
TAP	66	288	3
TAP	66	336	4

T_REC_TAP	311
T_REC_BRK	29
T_REC_XTP	22
T_REC_HLD	41
T_REC_XHO	0
T_REC_STR	73
T_REC_BST	8
T_REC_XST	4
T_REC_TTP	30
T_REC_THO	1
T_REC_SLD	85
T_REC_ALL	604
T_NUM_TAP	440
T_NUM_BRK	37
T_NUM_HLD	42
T_NUM_SLD	85
T_NUM_ALL	604
T_JUDGE_TAP	477
T_JUDGE_HLD	113
T_JUDGE_SLD	85
T_JUDGE_ALL	675
TTM_EACHPAIRS	147
TTM_SCR_TAP	220000
TTM_SCR_BRK	96200
TTM_SCR_HLD	42000
TTM_SCR_SLD	127500
TTM_SCR_ALL	485700
TTM_SCR_S	467550
TTM_SCR_SS	482000
TTM_RAT_ACV	10076

