VERSION	0.00.00	1.03.00
FES_MODE	0
BPM_DEF	128.000	128.000	128.000	128.000
MET_DEF	4	4
RESOLUTION	384
CLK_DEF	384
COMPATIBLE_CODE	MA2

BPM	0	0	128.000
MET	0	0	4	4

TAP	2	192	3
TAP	2	240	3
XHO	2	288	2	48
XHO	2	288	4	48
BRK	3	0	1
BRK	3	0	5
TAP	3	96	4
TAP	3	96	6
HLD	3	192	3	96
TAP	3	288	4
TAP	4	0	2
TAP	4	0	6
TAP	4	96	1
TAP	4	96	3
HLD	4	192	4	96
TAP	4	288	3
TAP	5	0	1
TAP	5	0	5
STR	5	96	3
SI_	5	96	3	96	48	1
STR	5	192	4
SI_	5	192	4	96	48	6
HLD	6	0	0	96
TAP	6	96	7
HLD	6	192	4	48
HLD	6	192	5	48
HLD	6	288	2	48
HLD	6	288	3	48
TAP	7	0	1
TAP	7	48	5
TAP	7	96	5
TAP	7	144	5
TAP	7	192	0
TAP	7	240	4
TAP	7	288	4
TAP	7	336	4
TAP	8	0	7
TAP	8	48	3
TAP	8	96	3
TAP	8	144	3
TAP	8	192	6
TAP	8	240	2
TAP	8	288	2
TAP	8	336	2
STR	9	0	5
SCL	9	0	5	96	48	2
STR	9	192	1
SUR	9	192	1	96	48	5
STR	10	0	6
SUL	10	0	6	96	48	2
STR	10	192	1
SCL	10	192	1	96	48	6
TAP	11	0	5
TAP	11	96	5
TAP	11	192	4
TAP	11	192	6
TAP	11	272	4
TAP	11	272	6
TAP	11	336	4
TAP	11	336	6
TTP	12	144	3	B	0	M1
TTP	12	144	3	E	0	M1
TTP	12	224	5	B	0	M1
TTP	12	224	5	E	0	M1
TAP	12	336	2
TAP	13	0	2
TAP	13	96	2
TAP	13	192	1
TAP	13	192	3
TAP	13	272	1
TAP	13	272	3
TAP	13	336	1
TAP	13	336	3
TTP	14	144	4	B	0	M1
TTP	14	144	5	E	0	M1
TTP	14	224	2	B	0	M1
TTP	14	224	3	E	0	M1
TAP	14	288	6
TAP	14	336	5
TAP	15	0	3
TAP	15	0	4
TAP	15	96	2
TAP	15	96	3
TAP	15	192	2
TAP	15	192	3
TAP	15	272	2
TAP	15	288	3
TAP	15	336	2
TAP	16	0	3
TAP	16	96	3
TAP	16	144	2
TAP	16	192	3
TAP	16	224	2
TAP	16	288	3
TAP	16	336	2
TAP	16	368	4
TAP	17	0	3
TAP	17	96	4
TAP	17	96	5
TAP	17	192	4
TAP	17	192	5
TAP	17	272	5
TAP	17	288	4
TAP	17	336	5
TAP	18	32	3
TAP	18	32	4
STR	18	96	2
SCL	18	96	2	96	144	5
TAP	18	144	5
TAP	18	192	5
HLD	19	0	4	96
TAP	19	96	3
TAP	19	192	1
TAP	19	192	3
TAP	19	272	1
TAP	19	272	3
STR	19	336	1
SI_	19	336	1	96	48	5
TAP	19	336	3
TAP	20	48	4
TAP	20	144	3
TAP	20	224	3
TAP	20	288	4
TAP	20	336	3
HLD	21	0	3	96
TAP	21	96	4
TAP	21	192	1
TAP	21	192	3
TAP	21	272	1
TAP	21	272	3
TAP	21	336	1
TAP	21	336	3
TAP	22	32	2
TAP	22	96	3
TAP	22	144	4
TAP	22	192	5
TAP	22	288	4
TAP	22	336	4
HLD	23	0	3	96
TAP	23	96	4
TAP	23	192	4
TAP	23	192	6
TAP	23	272	4
TAP	23	272	6
TAP	23	336	4
STR	23	336	6
SI_	23	336	6	96	48	2
TAP	24	48	3
TAP	24	144	4
TAP	24	224	5
TAP	24	288	4
TAP	24	336	3
STR	25	0	2
SXL	25	0	2	96	336	5
TAP	26	96	7
TAP	26	144	0
TAP	26	192	1
TAP	26	192	6
TAP	26	288	4
TAP	26	320	4
TAP	26	336	3
TAP	26	368	3
XTP	27	0	4
TAP	27	96	2
TAP	27	96	6
TAP	27	144	1
TAP	27	192	0
TAP	27	240	7
TAP	27	288	6
STR	27	336	2
SI_	27	336	2	96	48	4
TAP	27	336	5
STR	28	48	6
SI_	28	48	6	96	48	2
TAP	28	144	0
TAP	28	240	3
TAP	28	288	2
TAP	28	336	2
TAP	29	0	1
TAP	29	0	3
TAP	29	96	4
TAP	29	96	6
TAP	29	144	5
TAP	29	192	4
TAP	29	240	3
TAP	29	288	2
STR	29	336	1
SI_	29	336	1	96	48	5
TAP	29	336	3
STR	30	48	6
SI_	30	48	6	96	48	2
TAP	30	144	4
TAP	30	240	0
TAP	30	288	1
TAP	30	288	7
TAP	30	336	1
TAP	30	336	7
TAP	31	0	2
TAP	31	0	6
TAP	31	96	1
TAP	31	96	5
TAP	31	144	6
TAP	31	192	7
TAP	31	240	0
TAP	31	288	1
TAP	31	336	2
STR	31	336	5
SI_	31	336	5	96	48	3
STR	32	48	1
SI_	32	48	1	96	48	5
TAP	32	144	7
TAP	32	240	4
TAP	32	288	5
TAP	32	336	5
TAP	33	0	4
TAP	33	0	6
TAP	33	96	1
TAP	33	96	3
TAP	33	144	2
TAP	33	192	3
TAP	33	240	4
TAP	33	288	5
STR	33	336	4
SCR	33	336	4	96	192	3
TAP	33	336	6
TAP	34	288	1
TAP	34	288	5
HLD	35	0	3	864
TTP	35	96	4	B	0	M1
TTP	35	96	5	E	0	M1
TTP	35	192	2	B	0	M1
TTP	35	192	3	E	0	M1
TTP	35	288	5	B	0	M1
TTP	35	288	6	E	0	M1
TTP	36	96	4	B	0	M1
TTP	36	96	5	E	0	M1
TTP	36	192	2	B	0	M1
TTP	36	192	3	E	0	M1
TTP	36	288	5	B	0	M1
TTP	36	288	6	E	0	M1
TAP	37	96	4
TAP	37	144	3
TAP	37	192	5
TAP	37	240	4
TAP	37	288	2
TAP	37	288	3
TAP	38	48	4
TAP	38	96	3
TAP	38	144	5
TAP	38	192	3
TAP	38	240	4
TAP	38	288	3
HLD	39	0	4	864
TTP	39	96	3	B	0	M1
TTP	39	96	3	E	0	M1
TTP	39	192	5	B	0	M1
TTP	39	192	5	E	0	M1
TTP	39	288	2	B	0	M1
TTP	39	288	2	E	0	M1
TTP	40	96	3	B	0	M1
TTP	40	96	3	E	0	M1
TTP	40	192	5	B	0	M1
TTP	40	192	5	E	0	M1
TTP	40	288	2	B	0	M1
TTP	40	288	2	E	0	M1
TAP	41	96	3
TAP	41	144	4
TAP	41	192	2
TAP	41	240	3
TAP	41	288	4
TAP	41	288	5
TAP	42	48	0
TAP	42	48	1
TAP	42	96	2
TAP	42	96	3
TAP	42	144	4
TAP	42	144	5
TAP	42	192	6
TAP	42	192	7
STR	42	288	0
SI_	42	288	0	96	48	4
TAP	42	336	0
BST	43	0	6
SCL	43	0	6	96	48	3
BST	43	96	2
SCL	43	96	2	96	48	7
BRK	43	192	4
TAP	43	288	3
STR	43	288	5
SXL	43	288	5	96	192	2
TAP	43	336	3
TAP	43	336	5
TTP	44	144	0	C	1	M1
TAP	44	288	0
TAP	44	288	4
HLD	45	0	1	72
HLD	45	72	2	72
TAP	45	144	3
TAP	45	192	3
TAP	45	240	5
TAP	45	288	4
TAP	45	336	5
TAP	46	0	3
TAP	46	0	6
TAP	46	96	2
TAP	46	144	3
TAP	46	192	1
TAP	46	192	4
STR	46	288	7
SI_	46	288	7	96	48	3
TAP	46	336	7
BST	47	0	1
SCR	47	0	1	96	48	4
BST	47	96	5
SCR	47	96	5	96	48	0
BRK	47	192	3
STR	47	288	2
SXR	47	288	2	96	192	5
TAP	47	288	4
TAP	47	336	2
TAP	47	336	4
TTP	48	144	0	C	1	M1
TAP	48	288	3
TAP	48	288	7
HLD	49	0	6	72
HLD	49	72	5	72
TAP	49	144	4
TAP	49	192	3
TAP	49	240	2
TAP	49	288	1
TAP	49	288	4
TAP	50	0	0
TAP	50	0	7
TAP	50	48	6
TAP	50	96	5
TAP	50	144	4
TAP	50	192	3
TAP	50	192	6
STR	50	288	0
SI_	50	288	0	96	48	4
TAP	50	336	0
BST	51	0	5
SCR	51	0	5	96	48	0
BST	51	96	1
SCR	51	96	1	96	48	4
BRK	51	192	7
TAP	51	288	2
STR	51	288	6
SXL	51	288	6	96	192	3
TAP	51	336	2
TAP	51	336	6
TTP	52	144	0	C	1	M1
TAP	52	288	0
TAP	52	288	4
HLD	53	0	1	72
HLD	53	72	2	72
TAP	53	144	3
TAP	53	192	3
TAP	53	240	5
TAP	53	288	4
TAP	53	336	5
TAP	54	0	3
TAP	54	0	6
TAP	54	48	2
TAP	54	96	3
TAP	54	144	2
TAP	54	192	1
TAP	54	192	4
STR	54	288	7
SI_	54	288	7	96	48	3
TAP	54	336	7
BST	55	0	2
SCL	55	0	2	96	48	7
BST	55	96	6
SCL	55	96	6	96	48	3
BRK	55	192	0
STR	55	288	1
SXR	55	288	1	96	192	4
TAP	55	288	5
TAP	55	336	1
TAP	55	336	5
TTP	56	144	0	C	1	M1
TAP	56	288	3
TAP	56	288	7
HLD	57	0	6	72
HLD	57	72	5	72
TAP	57	144	4
TAP	57	192	3
TAP	57	240	2
TAP	57	288	1
TAP	57	288	5
TAP	58	0	0
TAP	58	0	7
TAP	58	48	6
TAP	58	96	5
TAP	58	144	4
TAP	58	192	3
TAP	58	192	5
TAP	58	240	2
TAP	58	240	6
BRK	58	288	1
BRK	58	288	7
TAP	59	0	4
TAP	59	96	2
TAP	59	96	4
TAP	59	192	4
TAP	59	192	6
STR	59	288	2
SI_	59	288	2	96	48	6
TAP	59	288	4
TAP	60	96	4
TAP	60	192	3
TAP	60	192	4
TAP	60	288	4
TAP	60	288	5
HLD	61	0	3	72
HLD	61	72	2	72
TAP	61	144	1
TAP	61	192	1
TAP	61	240	0
TAP	61	288	2
HLD	61	288	7	480
TAP	62	0	3
TAP	62	96	3
TAP	62	192	3
TAP	62	288	3
HLD	63	0	3	768
TAP	63	96	5
TAP	63	192	1
STR	63	288	5
SI_	63	288	5	96	48	1
TAP	64	96	2
TAP	64	192	4
TAP	64	288	2
HLD	65	0	4	72
HLD	65	72	5	72
TAP	65	144	6
TAP	65	192	6
TAP	65	240	7
HLD	65	288	0	1152
TAP	65	288	5
TAP	66	0	4
TAP	66	96	4
TAP	66	192	4
TAP	66	288	4
TTP	67	0	5	E	0	M1
TTP	67	96	4	E	0	M1
TTP	67	192	5	E	0	M1
TTP	67	288	4	E	0	M1
TTP	68	0	5	E	0	M1
TTP	68	96	4	E	0	M1
TTP	68	192	5	E	0	M1
TTP	68	288	4	E	0	M1

T_REC_TAP	301
T_REC_BRK	8
T_REC_XTP	1
T_REC_HLD	27
T_REC_XHO	2
T_REC_STR	27
T_REC_BST	8
T_REC_XST	0
T_REC_TTP	44
T_REC_THO	0
T_REC_SLD	35
T_REC_ALL	453
T_NUM_TAP	373
T_NUM_BRK	16
T_NUM_HLD	29
T_NUM_SLD	35
T_NUM_ALL	453
T_JUDGE_TAP	389
T_JUDGE_HLD	128
T_JUDGE_SLD	35
T_JUDGE_ALL	552
TTM_EACHPAIRS	81
TTM_SCR_TAP	186500
TTM_SCR_BRK	41600
TTM_SCR_HLD	29000
TTM_SCR_SLD	52500
TTM_SCR_ALL	309600
TTM_SCR_S	298800
TTM_SCR_SS	308000
TTM_RAT_ACV	10051

